  0
SECTION
  2
HEADER
  9
$ACADVER
  1
AC1014
  9
$ACADMAINTVER
 70
     9
  9
$DWGCODEPAGE
  3
ANSI_932
  9
$INSBASE
 10
0.0
 20
0.0
 30
0.0
  9
$EXTMIN
 10
58.25600617764689
 20
24.14402630057816
 30
-0.0015258207003583
  9
$EXTMAX
 10
584.1191188969535
 20
407.2074053311565
 30
0.0000000349246037
  9
$LIMMIN
 10
35.8092507345033
 20
27.14695078918967
  9
$LIMMAX
 10
298.7292507345033
 20
218.6669507891894
  9
$ORTHOMODE
 70
     1
  9
$REGENMODE
 70
     1
  9
$FILLMODE
 70
     1
  9
$QTEXTMODE
 70
     0
  9
$MIRRTEXT
 70
     1
  9
$DRAGMODE
 70
     2
  9
$LTSCALE
 40
1.0
  9
$OSMODE
 70
    37
  9
$ATTMODE
 70
     1
  9
$TEXTSIZE
 40
2.5
  9
$TRACEWID
 40
1.0
  9
$TEXTSTYLE
  7
STANDARD
  9
$CLAYER
  8
枠
  9
$CELTYPE
  6
BYLAYER
  9
$CECOLOR
 62
   256
  9
$CELTSCALE
 40
1.0
  9
$DELOBJ
 70
     1
  9
$DISPSILH
 70
     0
  9
$DIMSCALE
 40
1.0
  9
$DIMASZ
 40
2.5
  9
$DIMEXO
 40
1.0
  9
$DIMDLI
 40
10.0
  9
$DIMRND
 40
0.0
  9
$DIMDLE
 40
0.0
  9
$DIMEXE
 40
1.0
  9
$DIMTP
 40
0.1
  9
$DIMTM
 40
0.1
  9
$DIMTXT
 40
3.5
  9
$DIMCEN
 40
0.0
  9
$DIMTSZ
 40
0.0
  9
$DIMTOL
 70
     0
  9
$DIMLIM
 70
     0
  9
$DIMTIH
 70
     0
  9
$DIMTOH
 70
     0
  9
$DIMSE1
 70
     0
  9
$DIMSE2
 70
     0
  9
$DIMTAD
 70
     1
  9
$DIMZIN
 70
     8
  9
$DIMBLK
  1

  9
$DIMASO
 70
     1
  9
$DIMSHO
 70
     1
  9
$DIMPOST
  1

  9
$DIMAPOST
  1
"
  9
$DIMALT
 70
     0
  9
$DIMALTD
 70
     2
  9
$DIMALTF
 40
0.0393701
  9
$DIMLFAC
 40
1.0
  9
$DIMTOFL
 70
     0
  9
$DIMTVP
 40
0.0
  9
$DIMTIX
 70
     0
  9
$DIMSOXD
 70
     0
  9
$DIMSAH
 70
     0
  9
$DIMBLK1
  1

  9
$DIMBLK2
  1

  9
$DIMSTYLE
  2
AM_ANSI
  9
$DIMCLRD
 70
     3
  9
$DIMCLRE
 70
     3
  9
$DIMCLRT
 70
     2
  9
$DIMTFAC
 40
0.71
  9
$DIMGAP
 40
1.5
  9
$DIMJUST
 70
     0
  9
$DIMSD1
 70
     0
  9
$DIMSD2
 70
     0
  9
$DIMTOLJ
 70
     1
  9
$DIMTZIN
 70
     8
  9
$DIMALTZ
 70
     0
  9
$DIMALTTZ
 70
     0
  9
$DIMFIT
 70
     3
  9
$DIMUPT
 70
     0
  9
$DIMUNIT
 70
     2
  9
$DIMDEC
 70
     2
  9
$DIMTDEC
 70
     2
  9
$DIMALTU
 70
     2
  9
$DIMALTTD
 70
     2
  9
$DIMTXSTY
  7
STANDARD
  9
$DIMAUNIT
 70
     0
  9
$LUNITS
 70
     2
  9
$LUPREC
 70
     2
  9
$SKETCHINC
 40
1.0
  9
$FILLETRAD
 40
2.5
  9
$AUNITS
 70
     0
  9
$AUPREC
 70
     0
  9
$MENU
  1
.
  9
$ELEVATION
 40
0.0
  9
$PELEVATION
 40
0.0
  9
$THICKNESS
 40
0.0
  9
$LIMCHECK
 70
     0
  9
$BLIPMODE
 70
     0
  9
$CHAMFERA
 40
0.0
  9
$CHAMFERB
 40
0.0
  9
$CHAMFERC
 40
20.0
  9
$CHAMFERD
 40
0.0
  9
$SKPOLY
 70
     0
  9
$TDCREATE
 40
2454336.633386759
  9
$TDUPDATE
 40
2457218.691541018
  9
$TDINDWG
 40
0.2291567593
  9
$TDUSRTIMER
 40
0.2291543634
  9
$USRTIMER
 70
     1
  9
$ANGBASE
 50
0.0
  9
$ANGDIR
 70
     0
  9
$PDMODE
 70
     0
  9
$PDSIZE
 40
0.0
  9
$PLINEWID
 40
0.0
  9
$COORDS
 70
     0
  9
$SPLFRAME
 70
     0
  9
$SPLINETYPE
 70
     6
  9
$SPLINESEGS
 70
     8
  9
$ATTDIA
 70
     0
  9
$ATTREQ
 70
     1
  9
$HANDLING
 70
-16383
  9
$HANDSEED
  5
2789
  9
$SURFTAB1
 70
     6
  9
$SURFTAB2
 70
     6
  9
$SURFTYPE
 70
     6
  9
$SURFU
 70
     6
  9
$SURFV
 70
     6
  9
$UCSNAME
  2

  9
$UCSORG
 10
0.0
 20
0.0
 30
0.0
  9
$UCSXDIR
 10
1.0
 20
0.0
 30
0.0
  9
$UCSYDIR
 10
0.0
 20
1.0
 30
0.0
  9
$PUCSNAME
  2

  9
$PUCSORG
 10
0.0
 20
0.0
 30
0.0
  9
$PUCSXDIR
 10
1.0
 20
0.0
 30
0.0
  9
$PUCSYDIR
 10
0.0
 20
1.0
 30
0.0
  9
$USERI1
 70
     0
  9
$USERI2
 70
     0
  9
$USERI3
 70
     0
  9
$USERI4
 70
     0
  9
$USERI5
 70
     0
  9
$USERR1
 40
0.0
  9
$USERR2
 40
0.0
  9
$USERR3
 40
0.0
  9
$USERR4
 40
0.0
  9
$USERR5
 40
0.0
  9
$WORLDVIEW
 70
     1
  9
$SHADEDGE
 70
     3
  9
$SHADEDIF
 70
    70
  9
$TILEMODE
 70
     1
  9
$MAXACTVP
 70
    64
  9
$PINSBASE
 10
0.0
 20
0.0
 30
0.0
  9
$PLIMCHECK
 70
     0
  9
$PEXTMIN
 10
1.000000000000000E+20
 20
1.000000000000000E+20
 30
1.000000000000000E+20
  9
$PEXTMAX
 10
-1.000000000000000E+20
 20
-1.000000000000000E+20
 30
-1.000000000000000E+20
  9
$PLIMMIN
 10
0.0
 20
0.0
  9
$PLIMMAX
 10
420.0
 20
297.0
  9
$UNITMODE
 70
     0
  9
$VISRETAIN
 70
     1
  9
$PLINEGEN
 70
     0
  9
$PSLTSCALE
 70
     1
  9
$TREEDEPTH
 70
  3020
  9
$PICKSTYLE
 70
     1
  9
$CMLSTYLE
  2
STANDARD
  9
$CMLJUST
 70
     0
  9
$CMLSCALE
 40
20.0
  9
$PROXYGRAPHICS
 70
     1
  9
$MEASUREMENT
 70
     1
  0
ENDSEC
  0
SECTION
  2
CLASSES
  0
CLASS
  1
ACDBDICTIONARYWDFLT
  2
AcDbDictionaryWithDefault
  3
AutoCAD 2000
 90
        0
280
     0
281
     0
  0
CLASS
  1
ACDBPLACEHOLDER
  2
AcDbPlaceHolder
  3
AutoCAD 2000
 90
        0
280
     0
281
     0
  0
CLASS
  1
LAYOUT
  2
AcDbLayout
  3
AutoCAD 2000
 90
        0
280
     0
281
     0
  0
CLASS
  1
AMGSETTINGSOBJ
  2
AmgSettingsObj
  3
"AcadM|Product Description: AutoCAD Mechanical 2000|Company: Autodesk"
 90
        0
280
     0
281
     0
  0
CLASS
  1
ACME_DOCUMENT
  2
AcMeDbDoc
  3
AcMeServices
 90
        0
280
     0
281
     0
  0
CLASS
  1
ACMESCOPE
  2
AcMeScope
  3
AcMeServices
 90
        0
280
     0
281
     0
  0
CLASS
  1
ACMECOMMANDHISTORY
  2
AcMeCommandHistory
  3
AcMeServices
 90
        0
280
     0
281
     0
  0
CLASS
  1
DICTIONARYVAR
  2
AcDbDictionaryVar
  3
AutoCAD 2000
 90
        0
280
     0
281
     0
  0
CLASS
  1
ACIMSYSVARMAN
  2
AcImSysVarManager
  3
AcMeServices
 90
        0
280
     0
281
     0
  0
CLASS
  1
ACIMREALSYSVAR
  2
AcImRealSysVar
  3
AcMeServices
 90
        0
280
     0
281
     0
  0
CLASS
  1
ACIMINTSYSVAR
  2
AcImIntSysVar
  3
AcMeServices
 90
        0
280
     0
281
     0
  0
CLASS
  1
ACMEDRAWINGMAN
  2
AcMeDrawingMan
  3
AcMeServices
 90
        0
280
     0
281
     0
  0
CLASS
  1
ACMEVIEW
  2
AcMeView
  3
AcMeServices
 90
        0
280
     0
281
     0
  0
CLASS
  1
ACDBENTITYCACHE
  2
AcMeEntityCache
  3
AcMeServices
 90
        0
280
     0
281
     0
  0
CLASS
  1
GSMANAGER
  2
AcMeGSManager
  3
AcMeServices
 90
        0
280
     0
281
     0
  0
CLASS
  1
AMDTINTERNALREACTOR
  2
AmdtInternalReactor
  3
AcMeServices
 90
        0
280
     0
281
     0
  0
CLASS
  1
ACMESTATEMGR
  2
AcMeStateMgr
  3
AcMeServices
 90
        0
280
     0
281
     0
  0
CLASS
  1
ACGREFMASTER
  2
AcGrefMaster
  3
AcAttribServices
 90
        0
280
     0
281
     0
  0
CLASS
  1
AM_DRAWING_MGR
  2
AcDmDwgMgr
  3
AcMechDwgViewMgmt
 90
        0
280
     0
281
     0
  0
CLASS
  1
AM_DWG_DOCUMENT
  2
AcDmDwgDocument
  3
AcMechDwgViewMgmt
 90
        0
280
     0
281
     0
  0
CLASS
  1
AM_DWG_SHEET
  2
AcDmSheet
  3
AcMechDwgViewMgmt
 90
        0
280
     0
281
     0
  0
CLASS
  1
AM_VIEWDIMPARMAP
  2
AcDmViewDimParMap
  3
AcMechDwgViewMgmt
 90
        0
280
     0
281
     0
  0
CLASS
  1
AM_DWGMGR_NAME
  2
AcDmDwgMgrName
  3
AcMechDwgViewMgmt
 90
        0
280
     0
281
     0
  0
CLASS
  1
ACME_DATABASE
  2
AcMeDbDatabase
  3
AcMeServices
 90
        0
280
     0
281
     0
  0
CLASS
  1
ACRFINSADJUSTERMGR
  2
AcRfInsAdjusterMgr
  3
AcMeServices
 90
        0
280
     0
281
     0
  0
CLASS
  1
ACGREFMASTER
  2
AcGrefacadMaster
  3
AcGrefServices
 90
        0
280
     0
281
     0
  0
CLASS
  1
AMDTMENUSTATEMGR
  2
AmdtMenuStateMgr
  3
McadcomServices
 90
        0
280
     0
281
     0
  0
CLASS
  1
AMDTMCOMMENUSTATE
  2
AmdtMcomMenuState
  3
McadcomServices
 90
        0
280
     0
281
     0
  0
CLASS
  1
AMIMASTER
  2
AmiMaster
  3
AmiServices
 90
        0
280
     0
281
     0
  0
CLASS
  1
ASAPP
  2
AcAsAppObject
  3
AutoSurfServices
 90
        0
280
     0
281
     0
  0
CLASS
  1
IM_STATIC_MAN
  2
AcImStaticVarManager
  3
AcMeServices
 90
        0
280
     0
281
     0
  0
CLASS
  1
ACIMSTRSYSVAR
  2
AcImStrSysVar
  3
AcMeServices
 90
        0
280
     0
281
     0
  0
CLASS
  1
ACIMDBLSTATICVAR
  2
AcImDblStaticVar
  3
AcMeServices
 90
        0
280
     0
281
     0
  0
CLASS
  1
ACIMSTRSTATICVAR
  2
AcImStrStaticVar
  3
AcMeServices
 90
        0
280
     0
281
     0
  0
CLASS
  1
ACIMINTSTATICVAR
  2
AcImIntStaticVar
  3
AcMeServices
 90
        0
280
     0
281
     0
  0
CLASS
  1
ACASGREFMASTER
  2
AcAsGrefMaster
  3
AutoSurfResolverServices
 90
        0
280
     0
281
     0
  0
CLASS
  1
ACADGREFMODULE
  2
AcAdGrefModule
  3
AdGrefServices
 90
        0
280
     0
281
     0
  0
CLASS
  1
AMDTMAPISURFMOUDULE
  2
AmdtMApiSurfModule
  3
MApiSurfServices
 90
        0
280
     0
281
     0
  0
CLASS
  1
MAPIAMMOUDLE
  2
MApiAmModule
  3
MApiAmServices
 90
        0
280
     0
281
     0
  0
CLASS
  1
AMDTADMENUSTATE
  2
AmdtAdMenuState
  3
DesignerServices
 90
        0
280
     0
281
     0
  0
CLASS
  1
ADAPPL
  2
AcAdAppl
  3
DesignerServices
 90
        0
280
     0
281
     0
  0
CLASS
  1
DEPMGR
  2
AcAdDepMgr
  3
DesignerServices
 90
        0
280
     0
281
     0
  0
CLASS
  1
PARAMMGR
  2
AcAdParamMgr
  3
DesignerServices
 90
        0
280
     0
281
     0
  0
CLASS
  1
PARAMSCOPE
  2
AcAdParamScope
  3
DesignerServices
 90
        0
280
     0
281
     0
  0
CLASS
  1
NAMEDAPPL
  2
AcAdNamedAppl
  3
DesignerServices
 90
        0
280
     0
281
     0
  0
CLASS
  1
ADHNTMPLT
  2
AdHoleNoteTemplateMgr
  3
DesignerServices
 90
        0
280
     0
281
     0
  0
CLASS
  1
AM_HNTEMPLATE_MGR_NAME
  2
AdHoleNoteTemplateMgrName
  3
DesignerServices
 90
        0
280
     0
281
     0
  0
CLASS
  1
AMDTDMMENUSTATE
  2
AmdtDmMenuState
  3
AcMechDwgViewMgmt
 90
        0
280
     0
281
     0
  0
CLASS
  1
MAPIADMODULE
  2
MApiAdModule
  3
MApiAdServices
 90
        0
280
     0
281
     0
  0
CLASS
  1
AMDTAMMENUSTATE
  2
AmdtAmMenuState
  3
DesignerAssemblies
 90
        0
280
     0
281
     0
  0
CLASS
  1
ACAMPROJECT
  2
AcAmProject
  3
DesignerAssemblies
 90
        0
280
     0
281
     0
  0
CLASS
  1
ACAMGRCOMPDEF
  2
AcAmGrCompDef
  3
DesignerAssemblies
 90
        0
280
     0
281
     0
  0
CLASS
  1
ACCMCONTEXT
  2
AcCmContext
  3
DesignerAssemblies
 90
        0
280
     0
281
     0
  0
CLASS
  1
ACAMCOMPDEF
  2
AcAmCompDef
  3
DesignerAssemblies
 90
        0
280
     0
281
     0
  0
CLASS
  1
ACAMCOMPDEFMGR
  2
AcAmCompDefMgr
  3
DesignerAssemblies
 90
        0
280
     0
281
     0
  0
CLASS
  1
AMCONTEXTMGR
  2
AcAmContextMgr
  3
DesignerAssemblies
 90
        0
280
     0
281
     0
  0
CLASS
  1
ACAMCONTEXTMODELER
  2
AcAmContextModeler
  3
DesignerAssemblies
 90
        0
280
     0
281
     0
  0
CLASS
  1
ACMDATADICTIONARY
  2
AcmDataDictionary
  3
"AcmSymBB|Product Description: AutoCAD Mechanical 2000|Company: Autodesk"
 90
        0
280
     0
281
     0
  0
CLASS
  1
ACMDATAENTRYBLOCK
  2
AcmDataEntryBlock
  3
"AcmSymBB|Product Description: AutoCAD Mechanical 2000|Company: Autodesk"
 90
        0
280
     0
281
     0
  0
CLASS
  1
ACMSTANDARDISO
  2
AcmStandardISO
  3
"Amdt_StdImp|Product Description: AutoCAD Mechanical 2000|Company: Autodesk"
 90
        0
280
     0
281
     0
  0
CLASS
  1
AMGOBJPROPCFG
  2
AmgObjPropCfg
  3
"AmgLay|Product Description: AutoCAD Mechanical 2000|Company: Autodesk"
 90
        1
280
     0
281
     0
  0
CLASS
  1
AMDTEDGESTANDARDISO
  2
AmdtEdgeStdISO
  3
"Amdt_StdImp|Product Description: AutoCAD Mechanical 2000|Company: Autodesk"
 90
        0
280
     0
281
     0
  0
CLASS
  1
ACMSURFSTANDARDISO
  2
AcmSurfTextStdISO
  3
"Amdt_StdImp|Product Description: AutoCAD Mechanical 2000|Company: Autodesk"
 90
        0
280
     0
281
     0
  0
CLASS
  1
ACMFCFSTANDARDISO
  2
AcmFCFStdISO
  3
"Amdt_StdImp|Product Description: AutoCAD Mechanical 2000|Company: Autodesk"
 90
        0
280
     0
281
     0
  0
CLASS
  1
ACMWELDSTANDARDISO
  2
AcmWeldingStdISO
  3
"Amdt_StdImp|Product Description: AutoCAD Mechanical 2000|Company: Autodesk"
 90
        0
280
     0
281
     0
  0
CLASS
  1
ACMIDSTANDARDISO
  2
AcmIdStdISO
  3
"Amdt_StdImp|Product Description: AutoCAD Mechanical 2000|Company: Autodesk"
 90
        0
280
     0
281
     0
  0
CLASS
  1
ACMDATUMSTANDARDISO
  2
AcmDatumStdISO
  3
"Amdt_StdImp|Product Description: AutoCAD Mechanical 2000|Company: Autodesk"
 90
        0
280
     0
281
     0
  0
CLASS
  1
ACMBOMSTANDARDISO
  2
AcmBOMStdISO
  3
"Amdt_StdImp|Product Description: AutoCAD Mechanical 2000|Company: Autodesk"
 90
        0
280
     0
281
     0
  0
CLASS
  1
ACMDETAILSTANDARDISO
  2
AmdtDetailSymStdISO
  3
"Amdt_StdImp|Product Description: AutoCAD Mechanical 2000|Company: Autodesk"
 90
        0
280
     0
281
     0
  0
CLASS
  1
ACMSECTIONSTANDARDISO
  2
AmdtSectionSymStdISO
  3
"Amdt_StdImp|Product Description: AutoCAD Mechanical 2000|Company: Autodesk"
 90
        0
280
     0
281
     0
  0
CLASS
  1
ACMCENTERLINESTANDARDISO
  2
AmdtCenterLineStdISO
  3
"Amdt_StdImp|Product Description: AutoCAD Mechanical 2000|Company: Autodesk"
 90
        0
280
     0
281
     0
  0
CLASS
  1
ACMTHREADLINESTANDARDCSN
  2
AmdtThreadLineStdCSN
  3
"Amdt_StdImp|Product Description: AutoCAD Mechanical 2000|Company: Autodesk"
 90
        0
280
     0
281
     0
  0
CLASS
  1
"AcAmgLayStd"
  2
AcAmgLayStd
  3
"AcAmgLayStd|Product Description: AutoCAD Mechanical 2000|Company: Autodesk"
 90
        0
280
     0
281
     0
  0
CLASS
  1
"AcAmgDimStd"
  2
AcAmgDimStd
  3
"AcAmgDimStd|Product Description: AutoCAD Mechanical 2000|Company: Autodesk"
 90
        0
280
     0
281
     0
  0
CLASS
  1
AcAmgTitleStd
  2
AcAmgTitleStd
  3
"TITLEAPP"
 90
        0
280
     0
281
     0
  0
CLASS
  1
CATALOGSTATE
  2
AcAmCatalogState
  3
DesignerAssemblies
 90
        0
280
     0
281
     0
  0
CLASS
  1
ACAMGRCOMPDEFSET
  2
AcAmGrCompDefSet
  3
DesignerAssemblies
 90
        0
280
     0
281
     0
  0
CLASS
  1
AMDTBROWSERDBTAB
  2
AmdtBrowserDbTab
  3
McadcomServices
 90
        0
280
     0
281
     0
  0
CLASS
  1
CBROWSERAPPOBJECT
  2
CBrowserAppObject
  3
McadcomServices
 90
        0
280
     0
281
     0
  0
CLASS
  1
DM_PLACEHOLDER
  2
AcDmSelsetPlaceholder
  3
AcMechDwgViewMgmt
 90
        0
280
     0
281
     0
  0
CLASS
  1
AMDTFORMULAUPDATEDISPATCHER
  2
AmdtFormulaUpdateDispatcher
  3
AcMeServices
 90
        0
280
     0
281
     0
  0
CLASS
  1
ACAMGFILTERDAT
  2
AcAmgFilterDat
  3
"AcadM|Product Description: AutoCAD Mechanical 2000|Company: Autodesk"
 90
        0
280
     0
281
     0
  0
CLASS
  1
LAYER_INDEX
  2
AcDbLayerIndex
  3
AutoCAD 2000
 90
        0
280
     0
281
     0
  0
CLASS
  1
IDBUFFER
  2
AcDbIdBuffer
  3
AutoCAD 2000
 90
        0
280
     0
281
     0
  0
CLASS
  1
AMDTACMWBLOCKBOMENTITY
  2
AmdtAcmWblockBomEntity
  3
"AcmSymBB|Product Description: AutoCAD Mechanical 2000|Company: Autodesk"
 90
     1023
280
     0
281
     1
  0
CLASS
  1
ACMBOM
  2
AcmBom
  3
"AcmSymBB|Product Description: AutoCAD Mechanical 2000|Company: Autodesk"
 90
        0
280
     0
281
     0
  0
CLASS
  1
ACMDATAENTRY
  2
AcmDataEntry
  3
"AcmSymBB|Product Description: AutoCAD Mechanical 2000|Company: Autodesk"
 90
        0
280
     0
281
     0
  0
CLASS
  1
ACMBOMROW
  2
AcmBomRow
  3
"AcmSymBB|Product Description: AutoCAD Mechanical 2000|Company: Autodesk"
 90
        0
280
     0
281
     0
  0
CLASS
  1
ACMDATAENTRYPART
  2
AcmDataEntryPart
  3
"AcmSymBB|Product Description: AutoCAD Mechanical 2000|Company: Autodesk"
 90
        0
280
     0
281
     0
  0
CLASS
  1
ACMPARTREF
  2
AcmPartRef
  3
"AcmSymBB|Product Description: AutoCAD Mechanical 2000|Company: Autodesk"
 90
     1023
280
     0
281
     1
  0
CLASS
  1
ACDBLINERES
  2
AcDbLineRes
  3
AcGrefServices
 90
        0
280
     0
281
     0
  0
CLASS
  1
ACMBALLOON
  2
AcmBalloon
  3
"AcmSymBB|Product Description: AutoCAD Mechanical 2000|Company: Autodesk"
 90
     1023
280
     0
281
     1
  0
CLASS
  1
ACMPARTLIST
  2
AcmPartList
  3
"AcmSymBB|Product Description: AutoCAD Mechanical 2000|Company: Autodesk"
 90
     1023
280
     0
281
     1
  0
CLASS
  1
ACMSTANDARDANSI
  2
AcmStandardANSI
  3
"Amdt_StdImp|Product Description: AutoCAD Mechanical 2000|Company: Autodesk"
 90
        0
280
     0
281
     0
  0
CLASS
  1
ACMSURFSTANDARDANSI
  2
AcmSurfTextStdANSI
  3
"Amdt_StdImp|Product Description: AutoCAD Mechanical 2000|Company: Autodesk"
 90
        0
280
     0
281
     0
  0
CLASS
  1
ACMFCFSTANDARDANSI
  2
AcmFCFStdANSI
  3
"Amdt_StdImp|Product Description: AutoCAD Mechanical 2000|Company: Autodesk"
 90
        0
280
     0
281
     0
  0
CLASS
  1
ACMWELDSTANDARDANSI
  2
AcmWeldingStdANSI
  3
"Amdt_StdImp|Product Description: AutoCAD Mechanical 2000|Company: Autodesk"
 90
        0
280
     0
281
     0
  0
CLASS
  1
ACMIDSTANDARDANSI
  2
AcmIdStdANSI
  3
"Amdt_StdImp|Product Description: AutoCAD Mechanical 2000|Company: Autodesk"
 90
        0
280
     0
281
     0
  0
CLASS
  1
ACMDATUMSTANDARDANSI
  2
AcmDatumStdANSI
  3
"Amdt_StdImp|Product Description: AutoCAD Mechanical 2000|Company: Autodesk"
 90
        0
280
     0
281
     0
  0
CLASS
  1
ACMBOMSTANDARDANSI
  2
AcmBOMStdANSI
  3
"Amdt_StdImp|Product Description: AutoCAD Mechanical 2000|Company: Autodesk"
 90
        0
280
     0
281
     0
  0
CLASS
  1
ACMDETAILSTANDARDANSI
  2
AmdtDetailSymStdANSI
  3
"Amdt_StdImp|Product Description: AutoCAD Mechanical 2000|Company: Autodesk"
 90
        0
280
     0
281
     0
  0
CLASS
  1
ACMSECTIONSTANDARDANSI
  2
AmdtSectionSymStdANSI
  3
"Amdt_StdImp|Product Description: AutoCAD Mechanical 2000|Company: Autodesk"
 90
        0
280
     0
281
     0
  0
CLASS
  1
ACMCENTERLINESTANDARDANSI
  2
AmdtCenterLineStdANSI
  3
"Amdt_StdImp|Product Description: AutoCAD Mechanical 2000|Company: Autodesk"
 90
        0
280
     0
281
     0
  0
CLASS
  1
ACDBCIRCARCRES
  2
AcDbCircArcRes
  3
AcGrefServices
 90
        0
280
     0
281
     0
  0
CLASS
  1
ACAD_PROXY_OBJECT_WRAPPER
  2
AcDbProxyObjectWrapper
  3
AutoCAD 2000
 90
        0
280
     0
281
     0
  0
CLASS
  1
ACAD_PROXY_ENTITY_WRAPPER
  2
AcDbProxyEntityWrapper
  3
AutoCAD 2000
 90
        0
280
     0
281
     1
  0
CLASS
  1
LONG_TRANSACTION
  2
AcDbLongTransaction
  3
AutoCAD 2000
 90
        0
280
     0
281
     0
  0
CLASS
  1
LWPOLYLINE
  2
AcDbPolyline
  3
AutoCAD 2000
 90
        0
280
     0
281
     1
  0
CLASS
  1
HATCH
  2
AcDbHatch
  3
AutoCAD 2000
 90
        0
280
     0
281
     1
  0
CLASS
  1
XRECORD
  2
AcDbXrecord
  3
AutoCAD 2000
 90
        0
280
     0
281
     0
  0
ENDSEC
  0
SECTION
  2
TABLES
  0
TABLE
  2
VPORT
  5
8
330
0
100
AcDbSymbolTable
 70
     6
  0
VPORT
  5
2762
330
8
100
AcDbSymbolTableRecord
100
AcDbViewportTableRecord
  2
*ACTIVE
 70
     0
 10
0.0
 20
0.0
 11
1.0
 21
1.0
 12
205.9117338855029
 22
-53.21472288157156
 13
0.0
 23
0.0
 14
2.5
 24
2.5
 15
10.0
 25
10.0
 16
0.0
 26
0.0
 36
1.0
 17
236.9638554216867
 27
148.5
 37
0.0
 40
309.1456732637225
 41
2.164383561643835
 42
50.0
 43
0.0
 44
0.0
 50
0.0
 51
0.0
 71
     0
 72
   100
 73
     1
 74
     3
 75
     0
 76
     0
 77
     0
 78
     0
  0
ENDTAB
  0
TABLE
  2
LTYPE
  5
5
330
0
100
AcDbSymbolTable
 70
    15
  0
LTYPE
  5
14
330
5
100
AcDbSymbolTableRecord
100
AcDbLinetypeTableRecord
  2
BYBLOCK
 70
     0
  3

 72
    65
 73
     0
 40
0.0
  0
LTYPE
  5
15
330
5
100
AcDbSymbolTableRecord
100
AcDbLinetypeTableRecord
  2
BYLAYER
 70
     0
  3

 72
    65
 73
     0
 40
0.0
  0
LTYPE
  5
16
330
5
100
AcDbSymbolTableRecord
100
AcDbLinetypeTableRecord
  2
CONTINUOUS
 70
     0
  3
Solid line
 72
    65
 73
     0
 40
0.0
  0
LTYPE
  5
54
330
5
100
AcDbSymbolTableRecord
100
AcDbLinetypeTableRecord
  2
HIDDEN
 70
     0
  3
Hidden __ __ __ __ __ __ __ __ __ __ __ __ __ _
 72
    65
 73
     2
 40
9.524999999999996
 49
6.349999999999997
 74
     0
 49
-3.174999999999998
 74
     0
  0
LTYPE
  5
55
330
5
100
AcDbSymbolTableRecord
100
AcDbLinetypeTableRecord
  2
PHANTOM2
 70
     0
  3
Phantom (.5x) ___ _ _ ___ _ _ ___ _ _ ___ _ _
 72
    65
 73
     6
 40
31.75
 49
15.875
 74
     0
 49
-3.174999999999998
 74
     0
 49
3.174999999999998
 74
     0
 49
-3.174999999999998
 74
     0
 49
3.174999999999998
 74
     0
 49
-3.174999999999998
 74
     0
  0
LTYPE
  5
56
330
5
100
AcDbSymbolTableRecord
100
AcDbLinetypeTableRecord
  2
CENTER
 70
     0
  3
Center ____ _ ____ _ ____ _ ____ _ ____ _ ____
 72
    65
 73
     4
 40
50.8
 49
31.75
 74
     0
 49
-6.349999999999997
 74
     0
 49
6.349999999999997
 74
     0
 49
-6.349999999999997
 74
     0
  0
LTYPE
  5
F7
330
5
100
AcDbSymbolTableRecord
100
AcDbLinetypeTableRecord
  2
AMCONSTR
 70
     0
  3
_______________________
 72
    65
 73
     2
 40
9999.0
 49
9999.0
 74
     0
 49
0.0
 74
     0
  0
LTYPE
  5
10A
330
5
100
AcDbSymbolTableRecord
100
AcDbLinetypeTableRecord
  2
ACISOWELD
 70
     0
  3
_ _ _ _ _
 72
    65
 73
     2
 40
2.0
 49
2.0
 74
     0
 49
-1.0
 74
     0
  0
LTYPE
  5
10B
330
5
100
AcDbSymbolTableRecord
100
AcDbLinetypeTableRecord
  2
ACISOTGB
 70
     0
  3
__ . . __ . .
 72
    65
 73
     6
 40
9.0
 49
4.0
 74
     0
 49
-1.0
 74
     0
 49
1.0
 74
     0
 49
-1.0
 74
     0
 49
1.0
 74
     0
 49
-1.0
 74
     0
  0
LTYPE
  5
10C
330
5
100
AcDbSymbolTableRecord
100
AcDbLinetypeTableRecord
  2
ACISOTGL
 70
     0
  3
_ _ _ _ _
 72
    65
 73
     2
 40
3.0
 49
2.0
 74
     0
 49
-1.0
 74
     0
  0
LTYPE
  5
2212
330
5
100
AcDbSymbolTableRecord
100
AcDbLinetypeTableRecord
  2
ACANSTGBM
 70
     0
  3
__ . . __ . .
 72
    65
 73
     6
 40
9.0
 49
4.0
 74
     0
 49
-1.0
 74
     0
 49
1.0
 74
     0
 49
-1.0
 74
     0
 49
1.0
 74
     0
 49
-1.0
 74
     0
  0
LTYPE
  5
2213
330
5
100
AcDbSymbolTableRecord
100
AcDbLinetypeTableRecord
  2
ACANSTGLM
 70
     0
  3
_ _ _ _ _
 72
    65
 73
     2
 40
3.0
 49
2.0
 74
     0
 49
-1.0
 74
     0
  0
LTYPE
  5
221E
330
5
100
AcDbSymbolTableRecord
100
AcDbLinetypeTableRecord
  2
CENTER2
 70
     0
  3
Center (.5x) ___ _ ___ _ ___ _ ___ _ ___ _ ___
 72
    65
 73
     4
 40
1.125
 49
0.75
 74
     0
 49
-0.125
 74
     0
 49
0.125
 74
     0
 49
-0.125
 74
     0
  0
LTYPE
  5
221F
330
5
100
AcDbSymbolTableRecord
100
AcDbLinetypeTableRecord
  2
HIDDEN2
 70
     0
  3
Hidden (.5x) _ _ _ _ _ _ _ _ _ _ _ _ _ _ _ _ _
 72
    65
 73
     2
 40
0.1875
 49
0.125
 74
     0
 49
-0.0625
 74
     0
  0
LTYPE
  5
2220
330
5
100
AcDbSymbolTableRecord
100
AcDbLinetypeTableRecord
  2
AMZIGZAG2
 70
     0
  3
/\/-/\/-/\/-/\/-/\/-/\/
 72
    65
 73
     2
 40
0.4401
 49
0.0001
 74
     4
 75
   135
340
FB
 46
0.0016
 50
0.0
 44
0.0
 45
0.0
 49
-0.4400000000000003
 74
     0
  0
LTYPE
  5
23C6
330
5
100
AcDbSymbolTableRecord
100
AcDbLinetypeTableRecord
  2
ASULTYPE
 70
     0
  3
実線
 72
    65
 73
     2
 40
3.0
 49
2.5
 74
     0
 49
0.5
 74
     0
  0
LTYPE
  5
23C7
330
5
100
AcDbSymbolTableRecord
100
AcDbLinetypeTableRecord
  2
ASVLTYPE
 70
     0
  3
__ __ __ __ __ __ __ __ __ __ __ __ __ __ __ __ __ __ __ __ __
 72
    65
 73
     2
 40
0.75
 49
0.5
 74
     0
 49
-0.25
 74
     0
  0
ENDTAB
  0
TABLE
  2
LAYER
  5
2
330
0
100
AcDbSymbolTable
 70
     6
  0
LAYER
  5
10
330
2
100
AcDbSymbolTableRecord
100
AcDbLayerTableRecord
  2
0
 70
     0
 62
     7
  6
CONTINUOUS
  0
LAYER
  5
139
330
2
100
AcDbSymbolTableRecord
100
AcDbLayerTableRecord
  2
最小図面
 70
     0
 62
     7
  6
CONTINUOUS
  0
LAYER
  5
13A
330
2
100
AcDbSymbolTableRecord
100
AcDbLayerTableRecord
  2
枠
 70
     0
 62
     5
  6
CONTINUOUS
  0
LAYER
  5
24C
330
2
100
AcDbSymbolTableRecord
100
AcDbLayerTableRecord
  2
DEFPOINTS
 70
     0
 62
   251
  6
CONTINUOUS
  0
LAYER
  5
24D
330
2
100
AcDbSymbolTableRecord
100
AcDbLayerTableRecord
  2
5
 70
     0
 62
     3
  6
CONTINUOUS
  0
LAYER
  5
22AC
330
2
100
AcDbSymbolTableRecord
100
AcDbLayerTableRecord
  2
文字
 70
     0
 62
    70
  6
CONTINUOUS
  0
ENDTAB
  0
TABLE
  2
STYLE
  5
3
330
0
100
AcDbSymbolTable
 70
     6
  0
STYLE
  5
11
330
3
100
AcDbSymbolTableRecord
100
AcDbTextStyleTableRecord
  2
STANDARD
 70
     0
 40
0.0
 41
1.0
 50
0.0
 71
     0
 42
2.5
  3
ISOCP.SHX
  4
EXTFONT.SHX
  0
STYLE
  5
FB
330
3
100
AcDbSymbolTableRecord
100
AcDbTextStyleTableRecord
  2

 70
     1
 40
0.0
 41
1.0
 50
0.0
 71
     0
 42
2.5
  3
ltypeshp.shx
  4

  0
STYLE
  5
FD
330
3
100
AcDbSymbolTableRecord
100
AcDbTextStyleTableRecord
  2
ACISOTS
 70
     0
 40
1.0
 41
1.0
 50
0.0
 71
     0
 42
2.5
  3
isocp.shx
  4
extfont.shx
  0
STYLE
  5
109
330
3
100
AcDbSymbolTableRecord
100
AcDbTextStyleTableRecord
  2
ACISOGDT
 70
     0
 40
0.0
 41
1.0
 50
0.0
 71
     0
 42
2.5
  3
amgdt.shx
  4

  0
STYLE
  5
2206
330
3
100
AcDbSymbolTableRecord
100
AcDbTextStyleTableRecord
  2
ACANSTS
 70
     0
 40
1.0
 41
1.0
 50
0.0
 71
     0
 42
2.5
  3
romans.shx
  4
extfont.shx
  0
STYLE
  5
2211
330
3
100
AcDbSymbolTableRecord
100
AcDbTextStyleTableRecord
  2
ACANSGDT
 70
     0
 40
0.0
 41
1.0
 50
0.0
 71
     0
 42
2.5
  3
amgdtans.shx
  4

  0
ENDTAB
  0
TABLE
  2
VIEW
  5
6
330
0
100
AcDbSymbolTable
 70
     0
  0
ENDTAB
  0
TABLE
  2
UCS
  5
7
330
0
100
AcDbSymbolTable
 70
     0
  0
ENDTAB
  0
TABLE
  2
APPID
  5
9
330
0
100
AcDbSymbolTable
 70
    25
  0
APPID
  5
12
330
9
100
AcDbSymbolTableRecord
100
AcDbRegAppTableRecord
  2
ACAD
 70
     0
  0
APPID
  5
2E
330
9
100
AcDbSymbolTableRecord
100
AcDbRegAppTableRecord
  2
GENIUS_GENDIM_13
 70
     0
  0
APPID
  5
2F
330
9
100
AcDbSymbolTableRecord
100
AcDbRegAppTableRecord
  2
GENIUS_GENDTOL_13
 70
     0
  0
APPID
  5
30
330
9
100
AcDbSymbolTableRecord
100
AcDbRegAppTableRecord
  2
GENIUS_GE3DTOL_13
 70
     0
  0
APPID
  5
33
330
9
100
AcDbSymbolTableRecord
100
AcDbRegAppTableRecord
  2
MCAD_NO_VIS
 70
     0
  0
APPID
  5
34
330
9
100
AcDbSymbolTableRecord
100
AcDbRegAppTableRecord
  2
ACAD_TEMP_GRAPHIC
 70
     0
  0
APPID
  5
69
330
9
100
AcDbSymbolTableRecord
100
AcDbRegAppTableRecord
  2
AD_DRAW
 70
     0
  0
APPID
  5
6C
330
9
100
AcDbSymbolTableRecord
100
AcDbRegAppTableRecord
  2
ACATTRIBSERVICES
 70
     0
  0
APPID
  5
B8
330
9
100
AcDbSymbolTableRecord
100
AcDbRegAppTableRecord
  2
ASURF_PCURVE_APPNAME
 70
     0
  0
APPID
  5
BD
330
9
100
AcDbSymbolTableRecord
100
AcDbRegAppTableRecord
  2
AMG_3D2D_5_0
 70
     0
  0
APPID
  5
EB
330
9
100
AcDbSymbolTableRecord
100
AcDbRegAppTableRecord
  2
DESIGNERASSEMBLIES
 70
     0
  0
APPID
  5
121
330
9
100
AcDbSymbolTableRecord
100
AcDbRegAppTableRecord
  2
ACADM_DIM_EDIT
 70
     0
  0
APPID
  5
122
330
9
100
AcDbSymbolTableRecord
100
AcDbRegAppTableRecord
  2
AMDT_DM_ADJ
 70
     0
  0
APPID
  5
143
330
9
100
AcDbSymbolTableRecord
100
AcDbRegAppTableRecord
  2
GENIUS_GENODEF_13
 70
     0
  0
APPID
  5
144
330
9
100
AcDbSymbolTableRecord
100
AcDbRegAppTableRecord
  2
GENIUS_GENREC_14
 70
     0
  0
APPID
  5
145
330
9
100
AcDbSymbolTableRecord
100
AcDbRegAppTableRecord
  2
GENIUS_GENOBJ-N-REC_13
 70
     0
  0
APPID
  5
250
330
9
100
AcDbSymbolTableRecord
100
AcDbRegAppTableRecord
  2
GENIUS_GENOENT_13
 70
     0
  0
APPID
  5
251
330
9
100
AcDbSymbolTableRecord
100
AcDbRegAppTableRecord
  2
GENIUS_GENOREF_13
 70
     0
  0
APPID
  5
252
330
9
100
AcDbSymbolTableRecord
100
AcDbRegAppTableRecord
  2
GENIUS_GENOLIS_13
 70
     0
  0
APPID
  5
253
330
9
100
AcDbSymbolTableRecord
100
AcDbRegAppTableRecord
  2
GENIUS_GENOBJ-N-CEN_13
 70
     0
  0
APPID
  5
254
330
9
100
AcDbSymbolTableRecord
100
AcDbRegAppTableRecord
  2
GENIUS_GENOBJ-N-CRS_13
 70
     0
  0
APPID
  5
255
330
9
100
AcDbSymbolTableRecord
100
AcDbRegAppTableRecord
  2
GENIUS_GENFIL_13
 70
     0
  0
APPID
  5
256
330
9
100
AcDbSymbolTableRecord
100
AcDbRegAppTableRecord
  2
GENIUS_GENOBJ-N-CHA_13
 70
     0
  0
APPID
  5
257
330
9
100
AcDbSymbolTableRecord
100
AcDbRegAppTableRecord
  2
GENIUS_GENOBJ-N-FIL_13
 70
     0
  0
APPID
  5
15B4
330
9
100
AcDbSymbolTableRecord
100
AcDbRegAppTableRecord
  2
GENIUS_GENDREL_13
 70
     0
  0
ENDTAB
  0
TABLE
  2
DIMSTYLE
  5
A
330
0
100
AcDbSymbolTable
 70
    14
  0
DIMSTYLE
105
111
330
A
100
AcDbSymbolTableRecord
100
AcDbDimStyleTableRecord
  2
AM_ISO
 70
     0
  3

  4
"
  5

  6

  7

 40
1.0
 41
2.5
 42
1.0
 43
10.0
 44
1.0
 45
0.0
 46
0.0
 47
0.1
 48
0.1
140
3.5
141
0.0
142
0.0
143
0.0393701
144
1.0
145
0.0
146
0.71
147
1.5
 71
     0
 72
     0
 73
     0
 74
     0
 75
     0
 76
     0
 77
     1
 78
     8
170
     0
171
     2
172
     1
173
     0
174
     0
175
     0
176
   256
177
   256
178
     2
270
     2
271
     2
272
     3
273
     2
274
     4
340
11
275
     0
280
     0
281
     0
282
     0
283
     0
284
     8
285
     0
286
     0
287
     3
288
     0
  0
DIMSTYLE
105
112
330
A
100
AcDbSymbolTableRecord
100
AcDbDimStyleTableRecord
  2
AM_ISO$3
 70
     0
  3

  4
"
  5

  6

  7

 40
1.0
 41
2.5
 42
1.0
 43
10.0
 44
1.0
 45
0.0
 46
0.0
 47
0.1
 48
0.1
140
3.5
141
0.0
142
0.0
143
0.0393701
144
1.0
145
0.0
146
0.71
147
1.5
 71
     0
 72
     0
 73
     0
 74
     1
 75
     0
 76
     0
 77
     1
 78
     8
170
     0
171
     2
172
     0
173
     0
174
     0
175
     0
176
   256
177
   256
178
     2
270
     2
271
     2
272
     3
273
     2
274
     4
340
11
275
     0
280
     0
281
     0
282
     0
283
     0
284
     8
285
     0
286
     0
287
     0
288
     1
  0
DIMSTYLE
105
113
330
A
100
AcDbSymbolTableRecord
100
AcDbDimStyleTableRecord
  2
AM_ISO$4
 70
     0
  3

  4
"
  5

  6

  7

 40
1.0
 41
2.5
 42
1.0
 43
10.0
 44
1.0
 45
0.0
 46
0.0
 47
0.1
 48
0.1
140
3.5
141
0.0
142
0.0
143
0.0393701
144
1.0
145
0.0
146
0.71
147
1.5
 71
     0
 72
     0
 73
     0
 74
     1
 75
     0
 76
     0
 77
     1
 78
     8
170
     0
171
     2
172
     0
173
     0
174
     0
175
     0
176
   256
177
   256
178
     2
270
     2
271
     2
272
     3
273
     2
274
     4
340
11
275
     0
280
     0
281
     0
282
     0
283
     0
284
     8
285
     0
286
     0
287
     0
288
     1
  0
DIMSTYLE
105
114
330
A
100
AcDbSymbolTableRecord
100
AcDbDimStyleTableRecord
  2
AM_ISO$6
 70
     0
  3

  4
"
  5

  6

  7

 40
1.0
 41
2.5
 42
1.0
 43
10.0
 44
1.0
 45
0.0
 46
0.0
 47
0.1
 48
0.1
140
3.5
141
0.0
142
0.0
143
0.0393701
144
1.0
145
0.0
146
0.71
147
1.5
 71
     0
 72
     0
 73
     0
 74
     0
 75
     0
 76
     0
 77
     0
 78
     8
170
     0
171
     2
172
     1
173
     0
174
     0
175
     0
176
   256
177
   256
178
     2
270
     2
271
     2
272
     3
273
     2
274
     4
340
11
275
     0
280
     0
281
     0
282
     0
283
     0
284
     8
285
     0
286
     0
287
     3
288
     0
  0
DIMSTYLE
105
115
330
A
100
AcDbSymbolTableRecord
100
AcDbDimStyleTableRecord
  2
AM_ISO$7
 70
     0
  3

  4
"
  5

  6

  7

 40
1.0
 41
2.5
 42
1.0
 43
10.0
 44
1.0
 45
0.0
 46
0.0
 47
0.1
 48
0.1
140
5.0
141
0.0
142
0.0
143
0.0393701
144
1.0
145
0.0
146
0.71
147
1.5
 71
     0
 72
     0
 73
     0
 74
     0
 75
     0
 76
     0
 77
     1
 78
     8
170
     0
171
     2
172
     1
173
     0
174
     0
175
     0
176
   256
177
   256
178
     2
270
     2
271
     2
272
     3
273
     2
274
     4
340
11
275
     0
280
     0
281
     0
282
     0
283
     0
284
     8
285
     0
286
     0
287
     3
288
     0
  0
DIMSTYLE
105
116
330
A
100
AcDbSymbolTableRecord
100
AcDbDimStyleTableRecord
  2
AM_ISO$SF
 70
     0
  3

  4
"
  5

  6

  7

 40
1.0
 41
2.5
 42
1.0
 43
10.0
 44
1.0
 45
0.0
 46
0.0
 47
0.1
 48
0.1
140
3.5
141
0.0
142
0.0
143
0.0393701
144
1.0
145
0.0
146
0.71
147
1.5
 71
     0
 72
     0
 73
     0
 74
     0
 75
     1
 76
     1
 77
     1
 78
     8
170
     0
171
     2
172
     1
173
     0
174
     0
175
     0
176
   256
177
   256
178
     2
270
     2
271
     2
272
     3
273
     2
274
     4
340
11
275
     0
280
     0
281
     0
282
     0
283
     0
284
     8
285
     0
286
     0
287
     3
288
     0
  0
DIMSTYLE
105
11B
330
A
100
AcDbSymbolTableRecord
100
AcDbDimStyleTableRecord
  2
AM_ISO$SH
 70
     0
  3

  4
"
  5

  6
GENAXEH
  7

 40
1.0
 41
2.5
 42
1.0
 43
10.0
 44
1.0
 45
0.0
 46
0.0
 47
0.1
 48
0.1
140
3.5
141
0.0
142
0.0
143
0.0393701
144
2.0
145
0.0
146
0.71
147
1.5
 71
     0
 72
     0
 73
     0
 74
     0
 75
     1
 76
     1
 77
     1
 78
     8
170
     0
171
     2
172
     1
173
     1
174
     0
175
     0
176
   256
177
   256
178
     2
270
     2
271
     2
272
     3
273
     2
274
     4
340
11
275
     0
280
     0
281
     0
282
     0
283
     0
284
     8
285
     0
286
     0
287
     3
288
     0
  0
DIMSTYLE
105
13E
330
A
100
AcDbSymbolTableRecord
100
AcDbDimStyleTableRecord
  2
GEN-ISO
 70
     0
  3
<>
  4
"
  5
OPEN
  6

  7

 40
1.0
 41
2.5
 42
1.0
 43
10.0
 44
1.0
 45
0.0
 46
0.0
 47
0.1
 48
0.1
140
3.5
141
0.0
142
0.0
143
0.0393701
144
1.0
145
0.0
146
0.71
147
1.5
 71
     0
 72
     0
 73
     0
 74
     0
 75
     0
 76
     0
 77
     1
 78
     8
170
     0
171
     2
172
     1
173
     1
174
     0
175
     0
176
   256
177
   256
178
   256
270
     2
271
     2
272
     3
273
     2
274
     4
340
11
275
     0
280
     0
281
     0
282
     0
283
     0
284
     8
285
     0
286
     0
287
     3
288
     0
  0
DIMSTYLE
105
2217
102
{ACAD_REACTORS
330
2599
330
25A6
330
25BC
330
25ED
330
2603
102
}
330
A
100
AcDbSymbolTableRecord
100
AcDbDimStyleTableRecord
  2
AM_ANSI
 70
     0
  3

  4
"
  5

  6

  7

 40
1.0
 41
2.5
 42
1.0
 43
10.0
 44
1.0
 45
0.0
 46
0.0
 47
0.1
 48
0.1
140
3.5
141
0.0
142
0.0
143
0.0393701
144
1.0
145
0.0
146
0.71
147
1.5
 71
     0
 72
     0
 73
     0
 74
     0
 75
     0
 76
     0
 77
     1
 78
     8
170
     0
171
     2
172
     0
173
     0
174
     0
175
     0
176
     3
177
     3
178
     2
270
     2
271
     2
272
     2
273
     2
274
     2
340
11
275
     0
280
     0
281
     0
282
     0
283
     1
284
     8
285
     0
286
     0
287
     3
288
     0
  0
DIMSTYLE
105
2218
330
A
100
AcDbSymbolTableRecord
100
AcDbDimStyleTableRecord
  2
AM_ANSI$3
 70
     0
  3

  4
"
  5

  6

  7

 40
1.0
 41
2.5
 42
1.0
 43
10.0
 44
1.0
 45
0.0
 46
0.0
 47
0.1
 48
0.1
140
3.5
141
0.0
142
0.0
143
0.0393701
144
1.0
145
0.0
146
0.71
147
1.5
 71
     0
 72
     0
 73
     0
 74
     0
 75
     0
 76
     0
 77
     1
 78
     8
170
     0
171
     2
172
     0
173
     0
174
     0
175
     0
176
     3
177
     3
178
     2
270
     2
271
     2
272
     2
273
     2
274
     2
340
11
275
     0
280
     0
281
     0
282
     0
283
     1
284
     8
285
     0
286
     0
287
     0
288
     1
  0
DIMSTYLE
105
2219
330
A
100
AcDbSymbolTableRecord
100
AcDbDimStyleTableRecord
  2
AM_ANSI$4
 70
     0
  3

  4
"
  5

  6

  7

 40
1.0
 41
2.5
 42
1.0
 43
10.0
 44
1.0
 45
0.0
 46
0.0
 47
0.1
 48
0.1
140
3.5
141
0.0
142
0.0
143
0.0393701
144
1.0
145
0.0
146
0.71
147
1.5
 71
     0
 72
     0
 73
     0
 74
     0
 75
     0
 76
     0
 77
     1
 78
     8
170
     0
171
     2
172
     0
173
     0
174
     0
175
     0
176
     3
177
     3
178
     2
270
     2
271
     2
272
     2
273
     2
274
     2
340
11
275
     0
280
     0
281
     0
282
     0
283
     1
284
     8
285
     0
286
     0
287
     0
288
     1
  0
DIMSTYLE
105
221A
330
A
100
AcDbSymbolTableRecord
100
AcDbDimStyleTableRecord
  2
AM_ANSI$7
 70
     0
  3

  4
"
  5

  6

  7

 40
1.0
 41
2.5
 42
1.0
 43
10.0
 44
1.0
 45
0.0
 46
0.0
 47
0.1
 48
0.1
140
5.0
141
0.0
142
0.0
143
0.0393701
144
1.0
145
0.0
146
0.71
147
1.5
 71
     0
 72
     0
 73
     0
 74
     0
 75
     0
 76
     0
 77
     1
 78
     8
170
     0
171
     2
172
     0
173
     0
174
     0
175
     0
176
     3
177
     3
178
     2
270
     2
271
     2
272
     2
273
     2
274
     2
340
11
275
     0
280
     0
281
     0
282
     0
283
     1
284
     8
285
     0
286
     0
287
     3
288
     0
  0
DIMSTYLE
105
221B
330
A
100
AcDbSymbolTableRecord
100
AcDbDimStyleTableRecord
  2
AM_ANSI$SF
 70
     0
  3

  4
"
  5

  6

  7

 40
1.0
 41
2.5
 42
1.0
 43
10.0
 44
1.0
 45
0.0
 46
0.0
 47
0.1
 48
0.1
140
3.5
141
0.0
142
0.0
143
0.0393701
144
1.0
145
0.0
146
0.71
147
1.5
 71
     0
 72
     0
 73
     1
 74
     1
 75
     1
 76
     1
 77
     0
 78
     8
170
     0
171
     2
172
     0
173
     0
174
     0
175
     0
176
   256
177
   256
178
     2
270
     2
271
     2
272
     3
273
     2
274
     4
340
11
275
     0
280
     0
281
     0
282
     0
283
     1
284
     8
285
     0
286
     0
287
     3
288
     0
  0
DIMSTYLE
105
221C
330
A
100
AcDbSymbolTableRecord
100
AcDbDimStyleTableRecord
  2
AM_ANSI$SH
 70
     0
  3

  4
"
  5

  6
GENAXEH
  7

 40
1.0
 41
2.5
 42
1.0
 43
10.0
 44
1.0
 45
0.0
 46
0.0
 47
0.1
 48
0.1
140
3.5
141
0.0
142
0.0
143
0.0393701
144
1.0
145
0.0
146
0.71
147
1.5
 71
     0
 72
     0
 73
     1
 74
     1
 75
     1
 76
     1
 77
     0
 78
     8
170
     0
171
     2
172
     0
173
     1
174
     0
175
     0
176
   256
177
   256
178
     2
270
     2
271
     2
272
     3
273
     2
274
     4
340
11
275
     0
280
     0
281
     0
282
     0
283
     1
284
     8
285
     0
286
     0
287
     3
288
     0
  0
ENDTAB
  0
TABLE
  2
BLOCK_RECORD
  5
1
330
0
100
AcDbSymbolTable
 70
    19
  0
BLOCK_RECORD
  5
1F
102
{ACAD_XDICTIONARY
360
174
102
}
330
1
100
AcDbSymbolTableRecord
100
AcDbBlockTableRecord
  2
*MODEL_SPACE
  0
BLOCK_RECORD
  5
1B
102
{ACAD_XDICTIONARY
360
2784
102
}
330
1
100
AcDbSymbolTableRecord
100
AcDbBlockTableRecord
  2
*PAPER_SPACE
  0
BLOCK_RECORD
  5
E2
330
1
100
AcDbSymbolTableRecord
100
AcDbBlockTableRecord
  2
*U1
  0
BLOCK_RECORD
  5
117
330
1
100
AcDbSymbolTableRecord
100
AcDbBlockTableRecord
  2
GENAXEH
  0
BLOCK_RECORD
  5
12D
330
1
100
AcDbSymbolTableRecord
100
AcDbBlockTableRecord
  2
_OPEN
  0
BLOCK_RECORD
  5
1858
330
1
100
AcDbSymbolTableRecord
100
AcDbBlockTableRecord
  2
*D4
  0
BLOCK_RECORD
  5
1864
330
1
100
AcDbSymbolTableRecord
100
AcDbBlockTableRecord
  2
*D5
  0
BLOCK_RECORD
  5
1870
330
1
100
AcDbSymbolTableRecord
100
AcDbBlockTableRecord
  2
*D6
  0
BLOCK_RECORD
  5
187C
330
1
100
AcDbSymbolTableRecord
100
AcDbBlockTableRecord
  2
*D7
  0
BLOCK_RECORD
  5
2353
330
1
100
AcDbSymbolTableRecord
100
AcDbBlockTableRecord
  2
*D8
  0
BLOCK_RECORD
  5
258D
330
1
100
AcDbSymbolTableRecord
100
AcDbBlockTableRecord
  2
*D9
  0
BLOCK_RECORD
  5
259A
330
1
100
AcDbSymbolTableRecord
100
AcDbBlockTableRecord
  2
*D10
  0
BLOCK_RECORD
  5
25A7
330
1
100
AcDbSymbolTableRecord
100
AcDbBlockTableRecord
  2
*D11
  0
BLOCK_RECORD
  5
25BD
330
1
100
AcDbSymbolTableRecord
100
AcDbBlockTableRecord
  2
*D12
  0
BLOCK_RECORD
  5
25EE
330
1
100
AcDbSymbolTableRecord
100
AcDbBlockTableRecord
  2
*D13
  0
BLOCK_RECORD
  5
2604
330
1
100
AcDbSymbolTableRecord
100
AcDbBlockTableRecord
  2
*D14
  0
BLOCK_RECORD
  5
2680
330
1
100
AcDbSymbolTableRecord
100
AcDbBlockTableRecord
  2
*D15
  0
BLOCK_RECORD
  5
26B8
330
1
100
AcDbSymbolTableRecord
100
AcDbBlockTableRecord
  2
*D17
  0
BLOCK_RECORD
  5
26E0
330
1
100
AcDbSymbolTableRecord
100
AcDbBlockTableRecord
  2
*D18
  0
ENDTAB
  0
ENDSEC
  0
SECTION
  2
BLOCKS
  0
BLOCK
  5
20
330
1F
100
AcDbEntity
  8
0
100
AcDbBlockBegin
  2
*MODEL_SPACE
 70
     0
 10
0.0
 20
0.0
 30
0.0
  3
*MODEL_SPACE
  1

  0
ENDBLK
  5
21
330
1F
100
AcDbEntity
  8
0
100
AcDbBlockEnd
  0
BLOCK
  5
1C
330
1B
100
AcDbEntity
 67
     1
  8
0
100
AcDbBlockBegin
  2
*PAPER_SPACE
 70
     0
 10
0.0
 20
0.0
 30
0.0
  3
*PAPER_SPACE
  1

  0
ENDBLK
  5
1D
330
1B
100
AcDbEntity
 67
     1
  8
0
100
AcDbBlockEnd
  0
BLOCK
  5
E3
330
E2
100
AcDbEntity
  8
0
100
AcDbBlockBegin
  2
*U1
 70
     1
 10
0.0
 20
0.0
 30
0.0
  3
*U1
  1

  0
ENDBLK
  5
E4
330
E2
100
AcDbEntity
  8
0
100
AcDbBlockEnd
  0
BLOCK
  5
119
330
117
100
AcDbEntity
  8
0
100
AcDbBlockBegin
  2
GENAXEH
 70
     0
 10
0.0
 20
0.0
 30
0.0
  3
GENAXEH
  1

  0
LINE
  5
118
330
117
100
AcDbEntity
  8
0
100
AcDbLine
 10
-1.0
 20
0.0
 30
0.0
 11
1.0
 21
0.0
 31
0.0
  0
ENDBLK
  5
11A
330
117
100
AcDbEntity
  8
0
100
AcDbBlockEnd
  0
BLOCK
  5
131
330
12D
100
AcDbEntity
  8
0
100
AcDbBlockBegin
  2
_OPEN
 70
     0
 10
0.0
 20
0.0
 30
0.0
  3
_OPEN
  1

  0
LINE
  5
12E
330
12D
100
AcDbEntity
  8
0
  6
BYBLOCK
 62
     0
100
AcDbLine
 10
-1.0
 20
0.1666666666666666
 30
0.0
 11
0.0
 21
0.0
 31
0.0
  0
LINE
  5
12F
330
12D
100
AcDbEntity
  8
0
  6
BYBLOCK
 62
     0
100
AcDbLine
 10
0.0
 20
0.0
 30
0.0
 11
-1.0
 21
-0.1666666666666666
 31
0.0
  0
LINE
  5
130
330
12D
100
AcDbEntity
  8
0
  6
BYBLOCK
 62
     0
100
AcDbLine
 10
0.0
 20
0.0
 30
0.0
 11
-1.0
 21
0.0
 31
0.0
  0
ENDBLK
  5
132
330
12D
100
AcDbEntity
  8
0
100
AcDbBlockEnd
  0
BLOCK
  5
1862
330
1858
100
AcDbEntity
  8
0
100
AcDbBlockBegin
  2
*D4
 70
     1
 10
0.0
 20
0.0
 30
0.0
  3
*D4
  1

  0
LINE
  5
255A
330
1858
100
AcDbEntity
  8
最小図面
100
AcDbLine
 10
262.1527300971286
 20
258.6171301388515
 30
0.0
 11
262.1527300971286
 21
108.7614989683879
 31
0.0
  0
LINE
  5
255B
330
1858
100
AcDbEntity
  8
最小図面
100
AcDbLine
 10
366.6528311940663
 20
258.6171465956849
 30
0.0
 11
366.6528311940663
 21
108.7614989683879
 31
0.0
  0
LINE
  5
255C
330
1858
100
AcDbEntity
  8
最小図面
100
AcDbLine
 10
264.6527300971285
 20
109.7614989683879
 30
0.0
 11
364.1528311940664
 21
109.7614989683879
 31
0.0
  0
INSERT
  5
255D
330
1858
100
AcDbEntity
  8
最小図面
100
AcDbBlockReference
  2
_OPEN
 10
262.1527300971286
 20
109.7614989683879
 30
0.0
 41
2.5
 42
2.5
 43
2.5
 50
180.0
  0
INSERT
  5
255E
330
1858
100
AcDbEntity
  8
最小図面
100
AcDbBlockReference
  2
_OPEN
 10
366.6528311940663
 20
109.7614989683879
 30
0.0
 41
2.5
 42
2.5
 43
2.5
  0
MTEXT
  5
255F
330
1858
100
AcDbEntity
  8
最小図面
100
AcDbMText
 10
314.1178889235006
 20
113.7614989683879
 30
0.0
 40
5.0
 41
0.0
 71
     5
 72
     1
  1
%%c104.5
1001
ACAD
1000
MTEXTBEGIN
1070
    73
1070
     1
1070
    44
1040
1.0
1070
    74
1070
     0
1000
MTEXTEND
  0
POINT
  5
2560
330
1858
100
AcDbEntity
  8
DEFPOINTS
 62
     0
100
AcDbPoint
 10
262.1527300971286
 20
259.6171301388515
 30
0.0
  0
POINT
  5
2561
330
1858
100
AcDbEntity
  8
DEFPOINTS
 62
     0
100
AcDbPoint
 10
366.6528311940663
 20
259.6171465956849
 30
0.0
  0
POINT
  5
2562
330
1858
100
AcDbEntity
  8
DEFPOINTS
 62
     0
100
AcDbPoint
 10
366.6528311940663
 20
109.7614989683879
 30
0.0
  0
ENDBLK
  5
1863
330
1858
100
AcDbEntity
  8
0
100
AcDbBlockEnd
  0
BLOCK
  5
186E
330
1864
100
AcDbEntity
  8
0
100
AcDbBlockBegin
  2
*D5
 70
     1
 10
0.0
 20
0.0
 30
0.0
  3
*D5
  1

  0
LINE
  5
256C
330
1864
100
AcDbEntity
  8
最小図面
100
AcDbLine
 10
286.6527806455973
 20
224.575007387334
 30
0.0
 11
286.6527806455973
 21
125.2915171767955
 31
0.0
  0
LINE
  5
256D
330
1864
100
AcDbEntity
  8
最小図面
100
AcDbLine
 10
342.1527806455975
 20
224.575007387334
 30
0.0
 11
342.1527806455975
 21
125.2915171767955
 31
0.0
  0
LINE
  5
256E
330
1864
100
AcDbEntity
  8
最小図面
100
AcDbLine
 10
289.1527806455973
 20
126.2915171767955
 30
0.0
 11
339.6527806455973
 21
126.2915171767955
 31
0.0
  0
INSERT
  5
256F
330
1864
100
AcDbEntity
  8
最小図面
100
AcDbBlockReference
  2
_OPEN
 10
286.6527806455973
 20
126.2915171767955
 30
0.0
 41
2.5
 42
2.5
 43
2.5
 50
180.0
  0
INSERT
  5
2570
330
1864
100
AcDbEntity
  8
最小図面
100
AcDbBlockReference
  2
_OPEN
 10
342.1527806455975
 20
126.2915171767955
 30
0.0
 41
2.5
 42
2.5
 43
2.5
  0
MTEXT
  5
2571
330
1864
100
AcDbEntity
  8
最小図面
100
AcDbMText
 10
314.4027806455973
 20
130.2915171767955
 30
0.0
 40
5.0
 41
0.0
 71
     5
 72
     1
  1
VU50
1001
ACAD
1000
MTEXTBEGIN
1070
    73
1070
     1
1070
    44
1040
1.0
1070
    74
1070
     0
1000
MTEXTEND
  0
POINT
  5
2572
330
1864
100
AcDbEntity
  8
DEFPOINTS
 62
     0
100
AcDbPoint
 10
286.6527806455973
 20
225.5750073873341
 30
0.0
  0
POINT
  5
2573
330
1864
100
AcDbEntity
  8
DEFPOINTS
 62
     0
100
AcDbPoint
 10
342.1527806455975
 20
225.5750073873341
 30
0.0
  0
POINT
  5
2574
330
1864
100
AcDbEntity
  8
DEFPOINTS
 62
     0
100
AcDbPoint
 10
342.1527806455975
 20
126.2915171767955
 30
0.0
  0
ENDBLK
  5
186F
330
1864
100
AcDbEntity
  8
0
100
AcDbBlockEnd
  0
BLOCK
  5
187A
330
1870
100
AcDbEntity
  8
0
100
AcDbBlockBegin
  2
*D6
 70
     1
 10
0.0
 20
0.0
 30
0.0
  3
*D6
  1

  0
LINE
  5
2348
330
1870
100
AcDbEntity
  8
5
100
AcDbLine
 10
286.3242568286261
 20
163.075007387334
 30
0.0
 11
310.3242568286261
 21
163.075007387334
 31
0.0
  0
LINE
  5
2349
330
1870
100
AcDbEntity
  8
5
100
AcDbLine
 10
291.0242568286261
 20
212.5750073873339
 30
0.0
 11
310.3242568286261
 21
212.5750073873339
 31
0.0
  0
LINE
  5
234A
330
1870
100
AcDbEntity
  8
5
100
AcDbLine
 10
309.3242568286261
 20
165.5750073873341
 30
0.0
 11
309.3242568286261
 21
210.075007387334
 31
0.0
  0
INSERT
  5
234B
330
1870
100
AcDbEntity
  8
5
100
AcDbBlockReference
  2
_OPEN
 10
309.3242568286261
 20
163.075007387334
 30
0.0
 41
2.5
 42
2.5
 43
2.5
 50
270.0
  0
INSERT
  5
234C
330
1870
100
AcDbEntity
  8
5
100
AcDbBlockReference
  2
_OPEN
 10
309.3242568286261
 20
212.5750073873339
 30
0.0
 41
2.5
 42
2.5
 43
2.5
 50
90.0
  0
MTEXT
  5
234D
330
1870
100
AcDbEntity
  8
5
100
AcDbMText
 10
305.3242568286261
 20
187.8250073873337
 30
0.0
 40
5.0
 41
0.0
 71
     5
 72
     1
  1
50
 11
0.0000000000000001
 21
1.0
 31
0.0
1001
ACAD
1000
MTEXTBEGIN
1070
    73
1070
     1
1070
    44
1040
1.0
1070
    74
1070
     0
1000
MTEXTEND
  0
POINT
  5
234E
330
1870
100
AcDbEntity
  8
DEFPOINTS
 62
     0
100
AcDbPoint
 10
285.3242568286261
 20
163.075007387334
 30
0.0
  0
POINT
  5
234F
330
1870
100
AcDbEntity
  8
DEFPOINTS
 62
     0
100
AcDbPoint
 10
290.0242568286261
 20
212.5750073873339
 30
0.0
  0
POINT
  5
2350
330
1870
100
AcDbEntity
  8
DEFPOINTS
 62
     0
100
AcDbPoint
 10
309.3242568286261
 20
212.5750073873339
 30
0.0
  0
ENDBLK
  5
187B
330
1870
100
AcDbEntity
  8
0
100
AcDbBlockEnd
  0
BLOCK
  5
1886
330
187C
100
AcDbEntity
  8
0
100
AcDbBlockBegin
  2
*D7
 70
     1
 10
0.0
 20
0.0
 30
0.0
  3
*D7
  1

  0
LINE
  5
2563
330
187C
100
AcDbEntity
  8
最小図面
100
AcDbLine
 10
261.1527405903089
 20
259.5750073873341
 30
0.0
 11
243.0338775642367
 21
259.5750073873341
 31
0.0
  0
LINE
  5
2564
330
187C
100
AcDbEntity
  8
最小図面
100
AcDbLine
 10
302.4027806455975
 20
152.0750073873341
 30
0.0
 11
243.0338775642367
 21
152.0750073873341
 31
0.0
  0
LINE
  5
2565
330
187C
100
AcDbEntity
  8
最小図面
100
AcDbLine
 10
244.0338775642368
 20
257.0750073873341
 30
0.0
 11
244.0338775642368
 21
154.5750073873341
 31
0.0
  0
INSERT
  5
2566
330
187C
100
AcDbEntity
  8
最小図面
100
AcDbBlockReference
  2
_OPEN
 10
244.0338775642368
 20
259.5750073873341
 30
0.0
 41
2.5
 42
2.5
 43
2.5
 50
90.0
  0
INSERT
  5
2567
330
187C
100
AcDbEntity
  8
最小図面
100
AcDbBlockReference
  2
_OPEN
 10
244.0338775642368
 20
152.0750073873341
 30
0.0
 41
2.5
 42
2.5
 43
2.5
 50
270.0
  0
MTEXT
  5
2568
330
187C
100
AcDbEntity
  8
最小図面
100
AcDbMText
 10
240.0338775642368
 20
205.825007387334
 30
0.0
 40
5.0
 41
0.0
 71
     5
 72
     1
  1
108
 11
0.0000000000000001
 21
1.0
 31
0.0
1001
ACAD
1000
MTEXTBEGIN
1070
    73
1070
     1
1070
    44
1040
1.0
1070
    74
1070
     0
1000
MTEXTEND
  0
POINT
  5
2569
330
187C
100
AcDbEntity
  8
DEFPOINTS
 62
     0
100
AcDbPoint
 10
262.152740590309
 20
259.5750073873341
 30
0.0
  0
POINT
  5
256A
330
187C
100
AcDbEntity
  8
DEFPOINTS
 62
     0
100
AcDbPoint
 10
303.4027806455974
 20
152.0750073873341
 30
0.0
  0
POINT
  5
256B
330
187C
100
AcDbEntity
  8
DEFPOINTS
 62
     0
100
AcDbPoint
 10
244.0338775642368
 20
152.0750073873341
 30
0.0
  0
ENDBLK
  5
1887
330
187C
100
AcDbEntity
  8
0
100
AcDbBlockEnd
  0
BLOCK
  5
235E
330
2353
100
AcDbEntity
  8
0
100
AcDbBlockBegin
  2
*D8
 70
     1
 10
0.0
 20
0.0
 30
0.0
  3
*D8
  1

  0
LINE
  5
2369
330
2353
100
AcDbEntity
  8
5
100
AcDbLine
 10
215.2742167733378
 20
259.5750073873341
 30
0.0
 11
197.1581371511375
 21
259.5750073873341
 31
0.0
  0
LINE
  5
236A
330
2353
100
AcDbEntity
  8
5
100
AcDbLine
 10
293.5242568286263
 20
297.5750073873341
 30
0.0
 11
197.1581371511375
 21
297.5750073873341
 31
0.0
  0
LINE
  5
236B
330
2353
100
AcDbEntity
  8
5
100
AcDbLine
 10
198.1581371511373
 20
262.075007387334
 30
0.0
 11
198.1581371511373
 21
295.0750073873341
 31
0.0
  0
INSERT
  5
236C
330
2353
100
AcDbEntity
  8
5
100
AcDbBlockReference
  2
_OPEN
 10
198.1581371511373
 20
259.5750073873341
 30
0.0
 41
2.5
 42
2.5
 43
2.5
 50
270.0
  0
INSERT
  5
236D
330
2353
100
AcDbEntity
  8
5
100
AcDbBlockReference
  2
_OPEN
 10
198.1581371511373
 20
297.5750073873341
 30
0.0
 41
2.5
 42
2.5
 43
2.5
 50
90.0
  0
MTEXT
  5
236E
330
2353
100
AcDbEntity
  8
5
100
AcDbMText
 10
194.1581371511375
 20
278.575007387334
 30
0.0
 40
5.0
 41
0.0
 71
     5
 72
     1
  1
38
 11
0.0000000000000001
 21
1.0
 31
0.0
1001
ACAD
1000
MTEXTBEGIN
1070
    73
1070
     1
1070
    44
1040
1.0
1070
    74
1070
     0
1000
MTEXTEND
  0
POINT
  5
236F
330
2353
100
AcDbEntity
  8
DEFPOINTS
 62
     0
100
AcDbPoint
 10
216.2742167733378
 20
259.5750073873341
 30
0.0
  0
POINT
  5
2370
330
2353
100
AcDbEntity
  8
DEFPOINTS
 62
     0
100
AcDbPoint
 10
294.5242568286263
 20
297.5750073873341
 30
0.0
  0
POINT
  5
2371
330
2353
100
AcDbEntity
  8
DEFPOINTS
 62
     0
100
AcDbPoint
 10
198.1581371511373
 20
297.5750073873341
 30
0.0
  0
ENDBLK
  5
235F
330
2353
100
AcDbEntity
  8
0
100
AcDbBlockEnd
  0
BLOCK
  5
2597
330
258D
100
AcDbEntity
  8
0
100
AcDbBlockBegin
  2
*D9
 70
     1
 10
0.0
 20
0.0
 30
0.0
  3
*D9
  1

  0
LINE
  5
258E
330
258D
100
AcDbEntity
  8
枠
100
AcDbLine
 10
268.9323449864896
 20
214.6757067577648
 30
0.0
 11
268.9323449864896
 21
90.79239216515864
 31
0.0
  0
LINE
  5
258F
330
258D
100
AcDbEntity
  8
枠
100
AcDbLine
 10
373.4324250970663
 20
214.6757067577648
 30
0.0
 11
373.4324250970663
 21
90.79239216515864
 31
0.0
  0
LINE
  5
2590
330
258D
100
AcDbEntity
  8
枠
100
AcDbLine
 10
271.4323449864896
 20
91.79239216515863
 30
0.0
 11
370.9324250970663
 21
91.79239216515863
 31
0.0
  0
SOLID
  5
2591
330
258D
100
AcDbEntity
  8
枠
100
AcDbTrace
 10
271.4323449864896
 20
92.20905883182528
 30
0.0
 11
271.4323449864896
 21
91.37572549849194
 31
0.0
 12
268.9323449864896
 22
91.79239216515863
 32
0.0
 13
268.9323449864896
 23
91.79239216515863
 33
0.0
  0
SOLID
  5
2592
330
258D
100
AcDbEntity
  8
枠
100
AcDbTrace
 10
370.9324250970663
 20
92.20905883182528
 30
0.0
 11
370.9324250970663
 21
91.37572549849194
 31
0.0
 12
373.4324250970663
 22
91.79239216515863
 32
0.0
 13
373.4324250970663
 23
91.79239216515863
 33
0.0
  0
MTEXT
  5
2593
330
258D
100
AcDbEntity
  8
枠
 62
     2
100
AcDbMText
 10
321.182385041778
 20
95.04239216515861
 30
0.0
 40
3.5
 41
0.0
 71
     5
 72
     1
  1
\A1;104.5
1001
ACAD
1000
MTEXTBEGIN
1070
    73
1070
     1
1070
    44
1040
1.0
1070
    74
1070
     0
1000
MTEXTEND
  0
POINT
  5
2594
330
258D
100
AcDbEntity
  8
DEFPOINTS
 62
     0
100
AcDbPoint
 10
268.9323449864896
 20
215.6757067577648
 30
0.0
  0
POINT
  5
2595
330
258D
100
AcDbEntity
  8
DEFPOINTS
 62
     0
100
AcDbPoint
 10
373.4324250970663
 20
215.6757067577648
 30
0.0
  0
POINT
  5
2596
330
258D
100
AcDbEntity
  8
DEFPOINTS
 62
     0
100
AcDbPoint
 10
373.4324250970663
 20
91.79239216515863
 30
0.0
  0
ENDBLK
  5
2598
330
258D
100
AcDbEntity
  8
0
100
AcDbBlockEnd
  0
BLOCK
  5
25A4
330
259A
100
AcDbEntity
  8
0
100
AcDbBlockBegin
  2
*D10
 70
     1
 10
0.0
 20
0.0
 30
0.0
  3
*D10
  1

  0
LINE
  5
263D
330
259A
100
AcDbEntity
  8
枠
 62
     3
100
AcDbLine
 10
268.9323449864896
 20
248.675706757765
 30
0.0
 11
268.9323449864896
 21
103.9666565925604
 31
0.0
  0
LINE
  5
263E
330
259A
100
AcDbEntity
  8
枠
 62
     3
100
AcDbLine
 10
373.4324250970663
 20
248.675706757765
 30
0.0
 11
373.4324250970663
 21
103.9666565925604
 31
0.0
  0
LINE
  5
263F
330
259A
100
AcDbEntity
  8
枠
 62
     3
100
AcDbLine
 10
271.4323449864896
 20
104.9666565925604
 30
0.0
 11
370.9324250970663
 21
104.9666565925604
 31
0.0
  0
SOLID
  5
2640
330
259A
100
AcDbEntity
  8
枠
 62
     3
100
AcDbTrace
 10
271.4323449864896
 20
105.3833232592271
 30
0.0
 11
271.4323449864896
 21
104.5499899258937
 31
0.0
 12
268.9323449864896
 22
104.9666565925604
 32
0.0
 13
268.9323449864896
 23
104.9666565925604
 33
0.0
  0
SOLID
  5
2641
330
259A
100
AcDbEntity
  8
枠
 62
     3
100
AcDbTrace
 10
370.9324250970663
 20
105.3833232592271
 30
0.0
 11
370.9324250970663
 21
104.5499899258937
 31
0.0
 12
373.4324250970663
 22
104.9666565925604
 32
0.0
 13
373.4324250970663
 23
104.9666565925604
 33
0.0
  0
MTEXT
  5
2642
330
259A
100
AcDbEntity
  8
枠
 62
     2
100
AcDbMText
 10
321.182385041778
 20
108.2166565925604
 30
0.0
 40
3.5
 41
0.0
 71
     5
 72
     1
  1
\A1;%%c104.5
1001
ACAD
1000
MTEXTBEGIN
1070
    73
1070
     1
1070
    44
1040
1.0
1070
    74
1070
     0
1000
MTEXTEND
  0
POINT
  5
2643
330
259A
100
AcDbEntity
  8
DEFPOINTS
 62
     0
100
AcDbPoint
 10
268.9323449864896
 20
249.675706757765
 30
0.0
  0
POINT
  5
2644
330
259A
100
AcDbEntity
  8
DEFPOINTS
 62
     0
100
AcDbPoint
 10
373.4324250970663
 20
249.675706757765
 30
0.0
  0
POINT
  5
2645
330
259A
100
AcDbEntity
  8
DEFPOINTS
 62
     0
100
AcDbPoint
 10
373.4324250970663
 20
104.9666565925604
 30
0.0
  0
ENDBLK
  5
25A5
330
259A
100
AcDbEntity
  8
0
100
AcDbBlockEnd
  0
BLOCK
  5
25B1
330
25A7
100
AcDbEntity
  8
0
100
AcDbBlockBegin
  2
*D11
 70
     1
 10
0.0
 20
0.0
 30
0.0
  3
*D11
  1

  0
LINE
  5
2634
330
25A7
100
AcDbEntity
  8
枠
 62
     3
100
AcDbLine
 10
293.1823850417778
 20
214.6757149861797
 30
0.0
 11
293.1823850417778
 21
120.3281466024637
 31
0.0
  0
LINE
  5
2635
330
25A7
100
AcDbEntity
  8
枠
 62
     3
100
AcDbLine
 10
349.182385041778
 20
214.6757149861797
 30
0.0
 11
349.182385041778
 21
120.3281466024637
 31
0.0
  0
LINE
  5
2636
330
25A7
100
AcDbEntity
  8
枠
 62
     3
100
AcDbLine
 10
295.6823850417778
 20
121.3281466024637
 30
0.0
 11
346.682385041778
 21
121.3281466024637
 31
0.0
  0
SOLID
  5
2637
330
25A7
100
AcDbEntity
  8
枠
 62
     3
100
AcDbTrace
 10
295.6823850417778
 20
121.7448132691303
 30
0.0
 11
295.6823850417778
 21
120.911479935797
 31
0.0
 12
293.1823850417778
 22
121.3281466024637
 32
0.0
 13
293.1823850417778
 23
121.3281466024637
 33
0.0
  0
SOLID
  5
2638
330
25A7
100
AcDbEntity
  8
枠
 62
     3
100
AcDbTrace
 10
346.682385041778
 20
121.7448132691303
 30
0.0
 11
346.682385041778
 21
120.911479935797
 31
0.0
 12
349.182385041778
 22
121.3281466024637
 32
0.0
 13
349.182385041778
 23
121.3281466024637
 33
0.0
  0
MTEXT
  5
2639
330
25A7
100
AcDbEntity
  8
枠
 62
     2
100
AcDbMText
 10
321.1823850417779
 20
124.5781466024637
 30
0.0
 40
3.5
 41
0.0
 71
     5
 72
     1
  1
\A1;VU50
1001
ACAD
1000
MTEXTBEGIN
1070
    73
1070
     1
1070
    44
1040
1.0
1070
    74
1070
     0
1000
MTEXTEND
  0
POINT
  5
263A
330
25A7
100
AcDbEntity
  8
DEFPOINTS
 62
     0
100
AcDbPoint
 10
293.1823850417778
 20
215.6757149861797
 30
0.0
  0
POINT
  5
263B
330
25A7
100
AcDbEntity
  8
DEFPOINTS
 62
     0
100
AcDbPoint
 10
349.182385041778
 20
215.6757149861797
 30
0.0
  0
POINT
  5
263C
330
25A7
100
AcDbEntity
  8
DEFPOINTS
 62
     0
100
AcDbPoint
 10
349.182385041778
 20
121.3281466024637
 30
0.0
  0
ENDBLK
  5
25B2
330
25A7
100
AcDbEntity
  8
0
100
AcDbBlockEnd
  0
BLOCK
  5
25C7
330
25BD
100
AcDbEntity
  8
0
100
AcDbBlockBegin
  2
*D12
 70
     1
 10
0.0
 20
0.0
 30
0.0
  3
*D12
  1

  0
LINE
  5
262B
330
25BD
100
AcDbEntity
  8
枠
 62
     3
100
AcDbLine
 10
309.1823850417781
 20
142.1757149861799
 30
0.0
 11
238.2873154498554
 21
142.1757149861799
 31
0.0
  0
LINE
  5
262C
330
25BD
100
AcDbEntity
  8
枠
 62
     3
100
AcDbLine
 10
267.9323449864896
 20
249.6757149861799
 30
0.0
 11
238.2873154498554
 21
249.6757149861799
 31
0.0
  0
LINE
  5
262D
330
25BD
100
AcDbEntity
  8
枠
 62
     3
100
AcDbLine
 10
239.2873154498554
 20
144.6757149861799
 30
0.0
 11
239.2873154498555
 21
247.1757149861799
 31
0.0
  0
SOLID
  5
262E
330
25BD
100
AcDbEntity
  8
枠
 62
     3
100
AcDbTrace
 10
238.8706487831888
 20
144.6757149861799
 30
0.0
 11
239.7039821165221
 21
144.6757149861799
 31
0.0
 12
239.2873154498554
 22
142.1757149861799
 32
0.0
 13
239.2873154498554
 23
142.1757149861799
 33
0.0
  0
SOLID
  5
262F
330
25BD
100
AcDbEntity
  8
枠
 62
     3
100
AcDbTrace
 10
238.8706487831888
 20
247.1757149861799
 30
0.0
 11
239.7039821165221
 21
247.1757149861799
 31
0.0
 12
239.2873154498555
 22
249.6757149861799
 32
0.0
 13
239.2873154498555
 23
249.6757149861799
 33
0.0
  0
MTEXT
  5
2630
330
25BD
100
AcDbEntity
  8
枠
 62
     2
100
AcDbMText
 10
236.0373154498554
 20
195.92571498618
 30
0.0
 40
3.5
 41
0.0
 71
     5
 72
     1
  1
\A1;108
 11
0.0000000000000001
 21
1.0
 31
0.0
1001
ACAD
1000
MTEXTBEGIN
1070
    73
1070
     1
1070
    44
1040
1.0
1070
    74
1070
     0
1000
MTEXTEND
  0
POINT
  5
2631
330
25BD
100
AcDbEntity
  8
DEFPOINTS
 62
     0
100
AcDbPoint
 10
310.1823850417781
 20
142.1757149861799
 30
0.0
  0
POINT
  5
2632
330
25BD
100
AcDbEntity
  8
DEFPOINTS
 62
     0
100
AcDbPoint
 10
268.9323449864896
 20
249.6757149861799
 30
0.0
  0
POINT
  5
2633
330
25BD
100
AcDbEntity
  8
DEFPOINTS
 62
     0
100
AcDbPoint
 10
239.2873154498555
 20
249.6757149861799
 30
0.0
  0
ENDBLK
  5
25C8
330
25BD
100
AcDbEntity
  8
0
100
AcDbBlockEnd
  0
BLOCK
  5
25F8
330
25EE
100
AcDbEntity
  8
0
100
AcDbBlockBegin
  2
*D13
 70
     1
 10
0.0
 20
0.0
 30
0.0
  3
*D13
  1

  0
LINE
  5
2646
330
25EE
100
AcDbEntity
  8
枠
 62
     3
100
AcDbLine
 10
267.9323449864896
 20
249.6757149861799
 30
0.0
 11
238.2873154498554
 21
249.6757149861799
 31
0.0
  0
LINE
  5
2647
330
25EE
100
AcDbEntity
  8
枠
 62
     3
100
AcDbLine
 10
299.1457560923066
 20
287.6757149861797
 30
0.0
 11
238.2873154498554
 21
287.6757149861797
 31
0.0
  0
LINE
  5
2648
330
25EE
100
AcDbEntity
  8
枠
 62
     3
100
AcDbLine
 10
239.2873154498555
 20
252.1757149861799
 30
0.0
 11
239.2873154498555
 21
285.1757149861797
 31
0.0
  0
SOLID
  5
2649
330
25EE
100
AcDbEntity
  8
枠
 62
     3
100
AcDbTrace
 10
238.8706487831888
 20
252.1757149861799
 30
0.0
 11
239.7039821165221
 21
252.1757149861799
 31
0.0
 12
239.2873154498555
 22
249.6757149861799
 32
0.0
 13
239.2873154498555
 23
249.6757149861799
 33
0.0
  0
SOLID
  5
264A
330
25EE
100
AcDbEntity
  8
枠
 62
     3
100
AcDbTrace
 10
238.8706487831888
 20
285.1757149861797
 30
0.0
 11
239.7039821165221
 21
285.1757149861797
 31
0.0
 12
239.2873154498555
 22
287.6757149861797
 32
0.0
 13
239.2873154498555
 23
287.6757149861797
 33
0.0
  0
MTEXT
  5
264B
330
25EE
100
AcDbEntity
  8
枠
 62
     2
100
AcDbMText
 10
236.0373154498554
 20
268.6757149861799
 30
0.0
 40
3.5
 41
0.0
 71
     5
 72
     1
  1
\A1;38
 11
0.0000000000000001
 21
1.0
 31
0.0
1001
ACAD
1000
MTEXTBEGIN
1070
    73
1070
     1
1070
    44
1040
1.0
1070
    74
1070
     0
1000
MTEXTEND
  0
POINT
  5
264C
330
25EE
100
AcDbEntity
  8
DEFPOINTS
 62
     0
100
AcDbPoint
 10
268.9323449864896
 20
249.6757149861799
 30
0.0
  0
POINT
  5
264D
330
25EE
100
AcDbEntity
  8
DEFPOINTS
 62
     0
100
AcDbPoint
 10
300.1457560923066
 20
287.6757149861797
 30
0.0
  0
POINT
  5
264E
330
25EE
100
AcDbEntity
  8
DEFPOINTS
 62
     0
100
AcDbPoint
 10
239.2873154498555
 20
287.6757149861797
 30
0.0
  0
ENDBLK
  5
25F9
330
25EE
100
AcDbEntity
  8
0
100
AcDbBlockEnd
  0
BLOCK
  5
260E
330
2604
100
AcDbEntity
  8
0
100
AcDbBlockBegin
  2
*D14
 70
     1
 10
0.0
 20
0.0
 30
0.0
  3
*D14
  1

  0
LINE
  5
26D6
330
2604
100
AcDbEntity
  8
枠
 62
     3
100
AcDbLine
 10
342.6823850417781
 20
152.6757149861799
 30
0.0
 11
383.5667604329997
 21
152.6757149861799
 31
0.0
  0
LINE
  5
26D7
330
2604
100
AcDbEntity
  8
枠
 62
     3
100
AcDbLine
 10
343.6823850417781
 20
202.6757149861799
 30
0.0
 11
383.5667604329997
 21
202.6757149861799
 31
0.0
  0
LINE
  5
26D8
330
2604
100
AcDbEntity
  8
枠
 62
     3
100
AcDbLine
 10
382.5667604329997
 20
155.1757149861799
 30
0.0
 11
382.5667604329997
 21
200.1757149861799
 31
0.0
  0
SOLID
  5
26D9
330
2604
100
AcDbEntity
  8
枠
 62
     3
100
AcDbTrace
 10
382.150093766333
 20
155.1757149861799
 30
0.0
 11
382.9834270996664
 21
155.1757149861799
 31
0.0
 12
382.5667604329997
 22
152.6757149861799
 32
0.0
 13
382.5667604329997
 23
152.6757149861799
 33
0.0
  0
SOLID
  5
26DA
330
2604
100
AcDbEntity
  8
枠
 62
     3
100
AcDbTrace
 10
382.150093766333
 20
200.1757149861799
 30
0.0
 11
382.9834270996664
 21
200.1757149861799
 31
0.0
 12
382.5667604329997
 22
202.6757149861799
 32
0.0
 13
382.5667604329997
 23
202.6757149861799
 33
0.0
  0
MTEXT
  5
26DB
330
2604
100
AcDbEntity
  8
枠
 62
     2
100
AcDbMText
 10
379.3167604329996
 20
177.67571498618
 30
0.0
 40
3.5
 41
0.0
 71
     5
 72
     1
  1
\A1;50
 11
0.0000000000000001
 21
1.0
 31
0.0
1001
ACAD
1000
MTEXTBEGIN
1070
    73
1070
     1
1070
    44
1040
1.0
1070
    74
1070
     0
1000
MTEXTEND
  0
POINT
  5
26DC
330
2604
100
AcDbEntity
  8
DEFPOINTS
 62
     0
100
AcDbPoint
 10
341.6823850417781
 20
152.6757149861799
 30
0.0
  0
POINT
  5
26DD
330
2604
100
AcDbEntity
  8
DEFPOINTS
 62
     0
100
AcDbPoint
 10
342.6823850417781
 20
202.6757149861799
 30
0.0
  0
POINT
  5
26DE
330
2604
100
AcDbEntity
  8
DEFPOINTS
 62
     0
100
AcDbPoint
 10
382.5667604329997
 20
202.6757149861799
 30
0.0
  0
ENDBLK
  5
260F
330
2604
100
AcDbEntity
  8
0
100
AcDbBlockEnd
  0
BLOCK
  5
268A
330
2680
100
AcDbEntity
  8
0
100
AcDbBlockBegin
  2
*D15
 70
     1
 10
0.0
 20
0.0
 30
0.0
  3
*D15
  1

  0
LINE
  5
2681
330
2680
100
AcDbEntity
  8
5
100
AcDbLine
 10
270.8289388421438
 20
155.0888328186429
 30
0.0
 11
294.8289388421438
 21
155.0888328186429
 31
0.0
  0
LINE
  5
2682
330
2680
100
AcDbEntity
  8
5
100
AcDbLine
 10
275.5289388421438
 20
204.5888328186429
 30
0.0
 11
294.8289388421438
 21
204.5888328186429
 31
0.0
  0
LINE
  5
2683
330
2680
100
AcDbEntity
  8
5
100
AcDbLine
 10
293.8289388421438
 20
157.5888328186429
 30
0.0
 11
293.8289388421438
 21
202.0888328186429
 31
0.0
  0
INSERT
  5
2684
330
2680
100
AcDbEntity
  8
5
100
AcDbBlockReference
  2
_OPEN
 10
293.8289388421438
 20
155.0888328186429
 30
0.0
 41
2.5
 42
2.5
 43
2.5
 50
270.0
  0
INSERT
  5
2685
330
2680
100
AcDbEntity
  8
5
100
AcDbBlockReference
  2
_OPEN
 10
293.8289388421438
 20
204.5888328186429
 30
0.0
 41
2.5
 42
2.5
 43
2.5
 50
90.0
  0
MTEXT
  5
2686
330
2680
100
AcDbEntity
  8
5
100
AcDbMText
 10
290.5789388421437
 20
179.838832818643
 30
0.0
 40
3.5
 41
0.0
 71
     5
 72
     1
  1
50
 11
0.0000000000000001
 21
1.0
 31
0.0
1001
ACAD
1000
MTEXTBEGIN
1070
    73
1070
     1
1070
    44
1040
1.0
1070
    74
1070
     0
1000
MTEXTEND
  0
POINT
  5
2687
330
2680
100
AcDbEntity
  8
DEFPOINTS
 62
     0
100
AcDbPoint
 10
269.8289388421438
 20
155.0888328186429
 30
0.0
  0
POINT
  5
2688
330
2680
100
AcDbEntity
  8
DEFPOINTS
 62
     0
100
AcDbPoint
 10
274.5289388421438
 20
204.5888328186429
 30
0.0
  0
POINT
  5
2689
330
2680
100
AcDbEntity
  8
DEFPOINTS
 62
     0
100
AcDbPoint
 10
293.8289388421438
 20
204.5888328186429
 30
0.0
  0
ENDBLK
  5
268B
330
2680
100
AcDbEntity
  8
0
100
AcDbBlockEnd
  0
BLOCK
  5
26C2
330
26B8
100
AcDbEntity
  8
0
100
AcDbBlockBegin
  2
*D17
 70
     1
 10
0.0
 20
0.0
 30
0.0
  3
*D17
  1

  0
LINE
  5
26C4
330
26B8
100
AcDbEntity
  8
5
100
AcDbLine
 10
190.0987480404448
 20
170.0573151086085
 30
0.0
 11
214.0987480404448
 21
170.0573151086084
 31
0.0
  0
LINE
  5
26C5
330
26B8
100
AcDbEntity
  8
5
100
AcDbLine
 10
194.7987480404449
 20
219.5573151086085
 30
0.0
 11
214.0987480404449
 21
219.5573151086085
 31
0.0
  0
LINE
  5
26C6
330
26B8
100
AcDbEntity
  8
5
100
AcDbLine
 10
213.0987480404448
 20
172.5573151086084
 30
0.0
 11
213.0987480404448
 21
217.0573151086085
 31
0.0
  0
INSERT
  5
26C7
330
26B8
100
AcDbEntity
  8
5
100
AcDbBlockReference
  2
_OPEN
 10
213.0987480404448
 20
170.0573151086084
 30
0.0
 41
2.5
 42
2.5
 43
2.5
 50
270.0
  0
INSERT
  5
26C8
330
26B8
100
AcDbEntity
  8
5
100
AcDbBlockReference
  2
_OPEN
 10
213.0987480404448
 20
219.5573151086085
 30
0.0
 41
2.5
 42
2.5
 43
2.5
 50
90.0
  0
MTEXT
  5
26C9
330
26B8
100
AcDbEntity
  8
5
100
AcDbMText
 10
209.8487480404448
 20
194.8073151086085
 30
0.0
 40
3.5
 41
0.0
 71
     5
 72
     1
  1
50
 11
0.0000000000000001
 21
1.0
 31
0.0
1001
ACAD
1000
MTEXTBEGIN
1070
    73
1070
     1
1070
    44
1040
1.0
1070
    74
1070
     0
1000
MTEXTEND
  0
POINT
  5
26CA
330
26B8
100
AcDbEntity
  8
DEFPOINTS
 62
     0
100
AcDbPoint
 10
189.0987480404448
 20
170.0573151086085
 30
0.0
  0
POINT
  5
26CB
330
26B8
100
AcDbEntity
  8
DEFPOINTS
 62
     0
100
AcDbPoint
 10
193.7987480404449
 20
219.5573151086085
 30
0.0
  0
POINT
  5
26CC
330
26B8
100
AcDbEntity
  8
DEFPOINTS
 62
     0
100
AcDbPoint
 10
213.0987480404448
 20
219.5573151086085
 30
0.0
  0
ENDBLK
  5
26C3
330
26B8
100
AcDbEntity
  8
0
100
AcDbBlockEnd
  0
BLOCK
  5
26EA
330
26E0
100
AcDbEntity
  8
0
100
AcDbBlockBegin
  2
*D18
 70
     1
 10
0.0
 20
0.0
 30
0.0
  3
*D18
  1

  0
LINE
  5
26E1
330
26E0
100
AcDbEntity
  8
枠
 62
     3
100
AcDbLine
 10
345.182385041778
 20
202.6757149861799
 30
0.0
 11
418.579538214863
 21
202.6757149861799
 31
0.0
  0
LINE
  5
26E2
330
26E0
100
AcDbEntity
  8
枠
 62
     3
100
AcDbLine
 10
345.182385041778
 20
152.6757149861799
 30
0.0
 11
418.579538214863
 21
152.6757149861799
 31
0.0
  0
LINE
  5
26E3
330
26E0
100
AcDbEntity
  8
枠
 62
     3
100
AcDbLine
 10
417.579538214863
 20
200.1757149861799
 30
0.0
 11
417.579538214863
 21
155.1757149861799
 31
0.0
  0
SOLID
  5
26E4
330
26E0
100
AcDbEntity
  8
枠
 62
     3
100
AcDbTrace
 10
417.1628715481963
 20
200.1757149861799
 30
0.0
 11
417.9962048815297
 21
200.1757149861799
 31
0.0
 12
417.579538214863
 22
202.6757149861799
 32
0.0
 13
417.579538214863
 23
202.6757149861799
 33
0.0
  0
SOLID
  5
26E5
330
26E0
100
AcDbEntity
  8
枠
 62
     3
100
AcDbTrace
 10
417.1628715481963
 20
155.1757149861799
 30
0.0
 11
417.9962048815297
 21
155.1757149861799
 31
0.0
 12
417.579538214863
 22
152.6757149861799
 32
0.0
 13
417.579538214863
 23
152.6757149861799
 33
0.0
  0
MTEXT
  5
26E6
330
26E0
100
AcDbEntity
  8
枠
 62
     2
100
AcDbMText
 10
414.329538214863
 20
177.67571498618
 30
0.0
 40
3.5
 41
0.0
 71
     5
 72
     1
  1
\A1;50
 11
0.0000000000000001
 21
1.0
 31
0.0
1001
ACAD
1000
MTEXTBEGIN
1070
    73
1070
     1
1070
    44
1040
1.0
1070
    74
1070
     0
1000
MTEXTEND
  0
POINT
  5
26E7
330
26E0
100
AcDbEntity
  8
DEFPOINTS
 62
     0
100
AcDbPoint
 10
344.182385041778
 20
202.6757149861799
 30
0.0
  0
POINT
  5
26E8
330
26E0
100
AcDbEntity
  8
DEFPOINTS
 62
     0
100
AcDbPoint
 10
344.182385041778
 20
152.6757149861799
 30
0.0
  0
POINT
  5
26E9
330
26E0
100
AcDbEntity
  8
DEFPOINTS
 62
     0
100
AcDbPoint
 10
417.579538214863
 20
152.6757149861799
 30
0.0
  0
ENDBLK
  5
26EB
330
26E0
100
AcDbEntity
  8
0
100
AcDbBlockEnd
  0
ENDSEC
  0
SECTION
  2
ENTITIES
  0
ACAD_PROXY_ENTITY
  5
3DD
330
1F
100
AcDbEntity
  8
5
  6
CONTINUOUS
100
AcDbProxyEntity
 90
      498
 91
      605
 92
        8
310
0800000000000000
 93
       34
310
181842D003
 94
        0
1001
ACAD
1000
AcadProxyRoundTripData
1071
      584
1071
   655383
1070
     0
  0
ACAD_PROXY_ENTITY
  5
3DE
330
1F
100
AcDbEntity
  8
5
  6
CONTINUOUS
100
AcDbProxyEntity
 90
      498
 91
      605
 92
        8
310
0800000000000000
 93
       34
310
141842D003
 94
        0
1001
ACAD
1000
AcadProxyRoundTripData
1071
      584
1071
   655383
1070
     0
  0
ACAD_PROXY_ENTITY
  5
3DF
330
1F
100
AcDbEntity
  8
5
  6
CONTINUOUS
100
AcDbProxyEntity
 90
      498
 91
      605
 92
        8
310
0800000000000000
 93
       34
310
121842D003
 94
        0
1001
ACAD
1000
AcadProxyRoundTripData
1071
      584
1071
   655383
1070
     0
  0
ACAD_PROXY_ENTITY
  5
3E0
330
1F
100
AcDbEntity
  8
5
  6
CONTINUOUS
100
AcDbProxyEntity
 90
      498
 91
      605
 92
        8
310
0800000000000000
 93
       34
310
0E1842D003
 94
        0
1001
ACAD
1000
AcadProxyRoundTripData
1071
      584
1071
   655383
1070
     0
  0
ACAD_PROXY_ENTITY
  5
3E1
330
1F
100
AcDbEntity
  8
5
  6
CONTINUOUS
100
AcDbProxyEntity
 90
      498
 91
      605
 92
        8
310
0800000000000000
 93
       34
310
081842D003
 94
        0
1001
ACAD
1000
AcadProxyRoundTripData
1071
      584
1071
   655383
1070
     0
  0
ACAD_PROXY_ENTITY
  5
3E2
330
1F
100
AcDbEntity
  8
5
  6
CONTINUOUS
100
AcDbProxyEntity
 90
      498
 91
      605
 92
        8
310
0800000000000000
 93
       34
310
061842D003
 94
        0
1001
ACAD
1000
AcadProxyRoundTripData
1071
      584
1071
   655383
1070
     0
  0
ACAD_PROXY_ENTITY
  5
401
330
1F
100
AcDbEntity
  8
5
  6
CONTINUOUS
100
AcDbProxyEntity
 90
      498
 91
      605
 92
        8
310
0800000000000000
 93
       34
310
0A1842D003
 94
        0
1001
ACAD
1000
AcadProxyRoundTripData
1071
      584
1071
   655383
1070
     0
  0
ACAD_PROXY_ENTITY
  5
40C
330
1F
100
AcDbEntity
  8
5
  6
CONTINUOUS
100
AcDbProxyEntity
 90
      498
 91
      605
 92
        8
310
0800000000000000
 93
       34
310
161842D003
 94
        0
1001
ACAD
1000
AcadProxyRoundTripData
1071
      584
1071
   655383
1070
     0
  0
ACAD_PROXY_ENTITY
  5
40D
330
1F
100
AcDbEntity
  8
5
  6
CONTINUOUS
100
AcDbProxyEntity
 90
      498
 91
      605
 92
        8
310
0800000000000000
 93
       34
310
0C1842D003
 94
        0
1001
ACAD
1000
AcadProxyRoundTripData
1071
      584
1071
   655383
1070
     0
  0
ACAD_PROXY_ENTITY
  5
514
330
1F
100
AcDbEntity
  8
5
  6
CONTINUOUS
100
AcDbProxyEntity
 90
      498
 91
      605
 92
        8
310
0800000000000000
 93
       34
310
101842D003
 94
        0
1001
ACAD
1000
AcadProxyRoundTripData
1071
      584
1071
   655383
1070
     0
  0
ACAD_PROXY_ENTITY
  5
9B0
330
1F
100
AcDbEntity
  8
5
  6
CONTINUOUS
100
AcDbProxyEntity
 90
      498
 91
      605
 92
        8
310
0800000000000000
 93
       34
310
0A10491003
 94
        0
1001
ACAD
1000
AcadProxyRoundTripData
1071
      584
1071
   655383
1070
     0
  0
ACAD_PROXY_ENTITY
  5
9BB
330
1F
100
AcDbEntity
  8
5
  6
CONTINUOUS
100
AcDbProxyEntity
 90
      498
 91
      605
 92
        8
310
0800000000000000
 93
       34
310
1610491003
 94
        0
1001
ACAD
1000
AcadProxyRoundTripData
1071
      584
1071
   655383
1070
     0
  0
ACAD_PROXY_ENTITY
  5
9BC
330
1F
100
AcDbEntity
  8
5
  6
CONTINUOUS
100
AcDbProxyEntity
 90
      498
 91
      605
 92
        8
310
0800000000000000
 93
       34
310
0C10491003
 94
        0
1001
ACAD
1000
AcadProxyRoundTripData
1071
      584
1071
   655383
1070
     0
  0
ACAD_PROXY_ENTITY
  5
F09
330
1F
100
AcDbEntity
  8
5
  6
CONTINUOUS
100
AcDbProxyEntity
 90
      498
 91
      605
 92
        8
310
0800000000000000
 93
       34
310
101251D003
 94
        0
1001
ACAD
1000
AcadProxyRoundTripData
1071
      584
1071
   655383
1070
     0
  0
ACAD_PROXY_ENTITY
  5
F0A
330
1F
100
AcDbEntity
  8
5
  6
CONTINUOUS
100
AcDbProxyEntity
 90
      498
 91
      605
 92
        8
310
0800000000000000
 93
       34
310
0E1251D003
 94
        0
1001
ACAD
1000
AcadProxyRoundTripData
1071
      584
1071
   655383
1070
     0
  0
ACAD_PROXY_ENTITY
  5
F0B
330
1F
100
AcDbEntity
  8
5
  6
CONTINUOUS
100
AcDbProxyEntity
 90
      498
 91
      605
 92
        8
310
0800000000000000
 93
       34
310
0A1251D003
 94
        0
1001
ACAD
1000
AcadProxyRoundTripData
1071
      584
1071
   655383
1070
     0
  0
ACAD_PROXY_ENTITY
  5
F0C
330
1F
100
AcDbEntity
  8
5
  6
CONTINUOUS
100
AcDbProxyEntity
 90
      498
 91
      605
 92
        8
310
0800000000000000
 93
       34
310
081251D003
 94
        0
1001
ACAD
1000
AcadProxyRoundTripData
1071
      584
1071
   655383
1070
     0
  0
ACAD_PROXY_ENTITY
  5
F0D
330
1F
100
AcDbEntity
  8
5
  6
CONTINUOUS
100
AcDbProxyEntity
 90
      498
 91
      605
 92
        8
310
0800000000000000
 93
       34
310
041251D003
 94
        0
1001
ACAD
1000
AcadProxyRoundTripData
1071
      584
1071
   655383
1070
     0
  0
ACAD_PROXY_ENTITY
  5
F46
330
1F
100
AcDbEntity
  8
5
  6
CONTINUOUS
100
AcDbProxyEntity
 90
      498
 91
      605
 92
        8
310
0800000000000000
 93
       34
310
001251D003
 94
        0
1001
ACAD
1000
AcadProxyRoundTripData
1071
      584
1071
   655383
1070
     0
  0
ACAD_PROXY_ENTITY
  5
F50
330
1F
100
AcDbEntity
  8
5
  6
CONTINUOUS
100
AcDbProxyEntity
 90
      498
 91
      605
 92
        8
310
0800000000000000
 93
       34
310
0C1251D003
 94
        0
1001
ACAD
1000
AcadProxyRoundTripData
1071
      584
1071
   655383
1070
     0
  0
ACAD_PROXY_ENTITY
  5
F51
330
1F
100
AcDbEntity
  8
5
  6
CONTINUOUS
100
AcDbProxyEntity
 90
      498
 91
      605
 92
        8
310
0800000000000000
 93
       34
310
021251D003
 94
        0
1001
ACAD
1000
AcadProxyRoundTripData
1071
      584
1071
   655383
1070
     0
  0
ACAD_PROXY_ENTITY
  5
103E
330
1F
100
AcDbEntity
  8
5
  6
CONTINUOUS
100
AcDbProxyEntity
 90
      498
 91
      605
 92
        8
310
0800000000000000
 93
       34
310
061251D003
 94
        0
1001
ACAD
1000
AcadProxyRoundTripData
1071
      584
1071
   655383
1070
     0
  0
ACAD_PROXY_ENTITY
  5
16F8
330
1F
100
AcDbEntity
  8
5
  6
CONTINUOUS
100
AcDbProxyEntity
 90
      498
 91
      605
 92
        8
310
0800000000000000
 93
       34
310
181F0A1003
 94
        0
1001
ACAD
1000
AcadProxyRoundTripData
1071
      584
1071
   655383
1070
     0
  0
ACAD_PROXY_ENTITY
  5
16F9
330
1F
100
AcDbEntity
  8
5
  6
CONTINUOUS
100
AcDbProxyEntity
 90
      498
 91
      605
 92
        8
310
0800000000000000
 93
       34
310
141F0A1003
 94
        0
1001
ACAD
1000
AcadProxyRoundTripData
1071
      584
1071
   655383
1070
     0
  0
ACAD_PROXY_ENTITY
  5
16FA
330
1F
100
AcDbEntity
  8
5
  6
CONTINUOUS
100
AcDbProxyEntity
 90
      498
 91
      605
 92
        8
310
0800000000000000
 93
       34
310
121F0A1003
 94
        0
1001
ACAD
1000
AcadProxyRoundTripData
1071
      584
1071
   655383
1070
     0
  0
ACAD_PROXY_ENTITY
  5
16FB
330
1F
100
AcDbEntity
  8
5
  6
CONTINUOUS
100
AcDbProxyEntity
 90
      498
 91
      605
 92
        8
310
0800000000000000
 93
       34
310
0E1F0A1003
 94
        0
1001
ACAD
1000
AcadProxyRoundTripData
1071
      584
1071
   655383
1070
     0
  0
ACAD_PROXY_ENTITY
  5
16FC
330
1F
100
AcDbEntity
  8
5
  6
CONTINUOUS
100
AcDbProxyEntity
 90
      498
 91
      605
 92
        8
310
0800000000000000
 93
       34
310
0A1F0A1003
 94
        0
1001
ACAD
1000
AcadProxyRoundTripData
1071
      584
1071
   655383
1070
     0
  0
ACAD_PROXY_ENTITY
  5
1712
330
1F
100
AcDbEntity
  8
5
  6
CONTINUOUS
100
AcDbProxyEntity
 90
      498
 91
      605
 92
        8
310
0800000000000000
 93
       34
310
1A1F0A1003
 94
        0
1001
ACAD
1000
AcadProxyRoundTripData
1071
      584
1071
   655383
1070
     0
  0
ACAD_PROXY_ENTITY
  5
171F
330
1F
100
AcDbEntity
  8
5
  6
CONTINUOUS
100
AcDbProxyEntity
 90
      498
 91
      605
 92
        8
310
0800000000000000
 93
       34
310
161F0A1003
 94
        0
1001
ACAD
1000
AcadProxyRoundTripData
1071
      584
1071
   655383
1070
     0
  0
ACAD_PROXY_ENTITY
  5
1720
330
1F
100
AcDbEntity
  8
5
  6
CONTINUOUS
100
AcDbProxyEntity
 90
      498
 91
      605
 92
        8
310
0800000000000000
 93
       34
310
0C1F0A1003
 94
        0
1001
ACAD
1000
AcadProxyRoundTripData
1071
      584
1071
   655383
1070
     0
  0
ACAD_PROXY_ENTITY
  5
17FF
330
1F
100
AcDbEntity
  8
5
  6
CONTINUOUS
100
AcDbProxyEntity
 90
      498
 91
      605
 92
        8
310
0800000000000000
 93
       34
310
101F0A1003
 94
        0
1001
ACAD
1000
AcadProxyRoundTripData
1071
      584
1071
   655383
1070
     0
  0
ARC
  5
1991
330
1F
100
AcDbEntity
  8
最小図面
100
AcDbCircle
 10
332.1823850417781
 20
154.1757149861798
 30
0.0
 40
12.0
100
AcDbArc
 50
270.0
 51
0.0
  0
LINE
  5
1994
330
1F
100
AcDbEntity
  8
最小図面
100
AcDbLine
 10
321.3823850417778
 20
303.7178459661141
 30
0.0
 11
347.1823850417781
 21
303.7178459661141
 31
0.0
  0
LINE
  5
199C
330
1F
100
AcDbEntity
  8
最小図面
100
AcDbLine
 10
337.982385041778
 20
270.717845966114
 30
0.0
 11
347.1823850417781
 21
270.717845966114
 31
0.0
  0
LINE
  5
19A9
330
1F
100
AcDbEntity
  8
最小図面
100
AcDbLine
 10
298.182385041778
 20
215.6757149861797
 30
0.0
 11
298.182385041778
 21
154.1757149861798
 31
0.0
  0
ARC
  5
19AA
330
1F
100
AcDbEntity
  8
最小図面
100
AcDbCircle
 10
310.1823850417781
 20
154.1757149861798
 30
0.0
 40
12.0
100
AcDbArc
 50
180.0
 51
270.0
  0
LINE
  5
19AC
330
1F
100
AcDbEntity
  8
最小図面
100
AcDbLine
 10
310.1823850417781
 20
142.1757149861799
 30
0.0
 11
332.1823850417781
 21
142.1757149861799
 31
0.0
  0
LINE
  5
19BD
330
1F
100
AcDbEntity
  8
最小図面
100
AcDbLine
 10
272.6874951175602
 20
255.2515059633173
 30
0.0
 11
283.3871384045463
 21
255.9835592858227
 31
0.0
  0
ARC
  5
19BE
330
1F
100
AcDbEntity
  8
最小図面
100
AcDbCircle
 10
272.9223616960528
 20
251.2657067577649
 30
0.0
 40
4.0
100
AcDbArc
 50
93.45661899999589
 51
175.9511204632217
  0
LINE
  5
19BF
330
1F
100
AcDbEntity
  8
最小図面
100
AcDbLine
 10
268.9323449864896
 20
249.675706757765
 30
0.0
 11
268.9323449864896
 21
251.5481366736853
 31
0.0
  0
ARC
  5
19C0
330
1F
100
AcDbEntity
  8
最小図面
100
AcDbCircle
 10
321.3823850417778
 20
286.7178459661141
 30
0.0
 40
17.0
100
AcDbArc
 50
90.0
 51
180.0
  0
LINE
  5
19C2
330
1F
100
AcDbEntity
  8
最小図面
100
AcDbLine
 10
288.1823616960526
 20
263.1757067577649
 30
0.0
 11
291.6823850417781
 21
263.1757067577649
 31
0.0
  0
LINE
  5
19C3
330
1F
100
AcDbEntity
  8
最小図面
100
AcDbLine
 10
291.6823850417781
 20
264.4214981187101
 30
0.0
 11
283.182385041778
 21
264.4214981187101
 31
0.0
  0
LINE
  5
19C5
330
1F
100
AcDbEntity
  8
最小図面
100
AcDbLine
 10
304.3823850417778
 20
268.6757149861797
 30
0.0
 11
304.3823850417778
 21
286.6757149861799
 31
0.0
  0
LINE
  5
19C6
330
1F
100
AcDbEntity
  8
最小図面
100
AcDbLine
 10
291.6823850417781
 20
263.1757149861797
 30
0.0
 11
288.4323850417778
 21
263.1757149861797
 31
0.0
  0
ARC
  5
19C7
330
1F
100
AcDbEntity
  8
最小図面
100
AcDbCircle
 10
283.1823616960526
 20
258.9765622092526
 30
0.0
 40
3.0
100
AcDbArc
 50
273.9139904632732
 51
0.0
  0
LINE
  5
19C8
330
1F
100
AcDbEntity
  8
最小図面
100
AcDbLine
 10
283.182385041778
 20
267.42149811871
 30
0.0
 11
283.182385041778
 21
264.4214981187101
 31
0.0
  0
LINE
  5
19CA
330
1F
100
AcDbEntity
  8
最小図面
100
AcDbLine
 10
291.6823850417781
 20
264.4214981187101
 30
0.0
 11
291.6823850417781
 21
263.1757149861797
 31
0.0
  0
LINE
  5
19CB
330
1F
100
AcDbEntity
  8
最小図面
100
AcDbLine
 10
286.1823616960526
 20
258.9765625550543
 30
0.0
 11
286.1823614425633
 21
261.1757070112543
 31
0.0
  0
ARC
  5
19CC
330
1F
100
AcDbEntity
  8
最小図面
100
AcDbCircle
 10
288.1823614425633
 20
261.1757072417887
 30
0.0
 40
2.0
100
AcDbArc
 50
90.00001386626577
 51
180.0000066043303
  0
LINE
  5
19D4
330
1F
100
AcDbEntity
  8
最小図面
100
AcDbLine
 10
299.4323850417781
 20
268.6757149861797
 30
0.0
 11
304.3823850417778
 21
268.6757149861797
 31
0.0
  0
ARC
  5
19D7
330
1F
100
AcDbEntity
  8
最小図面
100
AcDbCircle
 10
299.4323850417781
 20
267.6757149861797
 30
0.0
 40
1.0
100
AcDbArc
 50
90.0
 51
194.7271858355484
  0
LINE
  5
19DA
330
1F
100
AcDbEntity
  8
最小図面
100
AcDbLine
 10
337.982385041778
 20
268.6757149861797
 30
0.0
 11
337.982385041778
 21
270.6757149861797
 31
0.0
  0
LINE
  5
19E4
330
1F
100
AcDbEntity
  8
最小図面
100
AcDbLine
 10
344.182385041778
 20
215.6757149861797
 30
0.0
 11
344.182385041778
 21
154.1757149861798
 31
0.0
  0
LINE
  5
1A06
330
1F
100
AcDbEntity
  8
最小図面
100
AcDbLine
 10
347.1823850417781
 20
270.717845966114
 30
0.0
 11
392.182385041778
 21
268.717845966114
 31
0.0
  0
ARC
  5
1A4E
330
1F
100
AcDbEntity
  8
最小図面
100
AcDbCircle
 10
349.6823850417781
 20
303.7178459661141
 30
0.0
 40
2.5
100
AcDbArc
 50
0.0
 51
180.0
  0
LINE
  5
1BC1
330
1F
100
AcDbEntity
  8
最小図面
100
AcDbLine
 10
350.6823850417778
 20
264.4214981187101
 30
0.0
 11
359.1823850417778
 21
264.4214981187101
 31
0.0
  0
LINE
  5
1BC2
330
1F
100
AcDbEntity
  8
最小図面
100
AcDbLine
 10
354.1824083875033
 20
263.1757067577649
 30
0.0
 11
350.6823850417778
 21
263.1757067577649
 31
0.0
  0
LINE
  5
1BC3
330
1F
100
AcDbEntity
  8
最小図面
100
AcDbLine
 10
369.6772749659956
 20
255.2515059633173
 30
0.0
 11
358.9776316790096
 21
255.9835592858227
 31
0.0
  0
ARC
  5
1BC4
330
1F
100
AcDbEntity
  8
最小図面
100
AcDbCircle
 10
369.4424083875031
 20
251.2657067577649
 30
0.0
 40
4.0
100
AcDbArc
 50
4.048879536778247
 51
86.54338100000414
  0
ARC
  5
1BC5
330
1F
100
AcDbEntity
  8
最小図面
100
AcDbCircle
 10
354.1824086409926
 20
261.1757072417887
 30
0.0
 40
2.0
100
AcDbArc
 50
359.9999933956695
 51
89.99998613373422
  0
ARC
  5
1BC6
330
1F
100
AcDbEntity
  8
最小図面
100
AcDbCircle
 10
359.1824083875032
 20
258.9765622092526
 30
0.0
 40
3.0
100
AcDbArc
 50
180.0
 51
266.0860095367266
  0
LINE
  5
1BC7
330
1F
100
AcDbEntity
  8
最小図面
100
AcDbLine
 10
356.1824083875033
 20
258.9765625550543
 30
0.0
 11
356.1824086409926
 21
261.1757070112543
 31
0.0
  0
LINE
  5
1BC8
330
1F
100
AcDbEntity
  8
最小図面
100
AcDbLine
 10
350.6823850417778
 20
263.1757149861797
 30
0.0
 11
353.932385041778
 21
263.1757149861797
 31
0.0
  0
LINE
  5
1BC9
330
1F
100
AcDbEntity
  8
最小図面
100
AcDbLine
 10
359.1823850417778
 20
267.42149811871
 30
0.0
 11
359.1823850417778
 21
264.4214981187101
 31
0.0
  0
LINE
  5
1BCC
330
1F
100
AcDbEntity
  8
最小図面
100
AcDbLine
 10
350.6823850417778
 20
264.4214981187101
 30
0.0
 11
350.6823850417778
 21
263.1757149861797
 31
0.0
  0
LINE
  5
1BCD
330
1F
100
AcDbEntity
  8
最小図面
100
AcDbLine
 10
342.9323850417778
 20
268.6757149861797
 30
0.0
 11
337.982385041778
 21
268.6757149861797
 31
0.0
  0
ARC
  5
1BCE
330
1F
100
AcDbEntity
  8
最小図面
100
AcDbCircle
 10
342.9323850417778
 20
267.6757149861797
 30
0.0
 40
1.0
100
AcDbArc
 50
345.2728141644516
 51
90.0
  0
ARC
  5
1BD1
330
1F
100
AcDbEntity
  8
最小図面
100
AcDbCircle
 10
369.4424083875031
 20
251.2657067577649
 30
0.0
 40
4.0
100
AcDbArc
 50
4.048879536778247
 51
86.54338100000414
  0
LINE
  5
1BD2
330
1F
100
AcDbEntity
  8
最小図面
100
AcDbLine
 10
373.4324250970663
 20
249.675706757765
 30
0.0
 11
373.4324250970662
 21
251.5481366736853
 31
0.0
  0
ACAD_PROXY_ENTITY
  5
1E87
330
1F
100
AcDbEntity
  8
5
  6
CONTINUOUS
100
AcDbProxyEntity
 90
      498
 91
      605
 92
        8
310
0800000000000000
 93
       34
310
183B08D003
 94
        0
1001
ACAD
1000
AcadProxyRoundTripData
1071
      584
1071
   655383
1070
     0
  0
ACAD_PROXY_ENTITY
  5
1E88
330
1F
100
AcDbEntity
  8
5
  6
CONTINUOUS
100
AcDbProxyEntity
 90
      498
 91
      605
 92
        8
310
0800000000000000
 93
       34
310
143B08D003
 94
        0
1001
ACAD
1000
AcadProxyRoundTripData
1071
      584
1071
   655383
1070
     0
  0
ACAD_PROXY_ENTITY
  5
1E89
330
1F
100
AcDbEntity
  8
5
  6
CONTINUOUS
100
AcDbProxyEntity
 90
      498
 91
      605
 92
        8
310
0800000000000000
 93
       34
310
123B08D003
 94
        0
1001
ACAD
1000
AcadProxyRoundTripData
1071
      584
1071
   655383
1070
     0
  0
ACAD_PROXY_ENTITY
  5
1E8A
330
1F
100
AcDbEntity
  8
5
  6
CONTINUOUS
100
AcDbProxyEntity
 90
      498
 91
      605
 92
        8
310
0800000000000000
 93
       34
310
0E3B08D003
 94
        0
1001
ACAD
1000
AcadProxyRoundTripData
1071
      584
1071
   655383
1070
     0
  0
ACAD_PROXY_ENTITY
  5
1E8B
330
1F
100
AcDbEntity
  8
5
  6
CONTINUOUS
100
AcDbProxyEntity
 90
      498
 91
      605
 92
        8
310
0800000000000000
 93
       34
310
0A3B08D003
 94
        0
1001
ACAD
1000
AcadProxyRoundTripData
1071
      584
1071
   655383
1070
     0
  0
ACAD_PROXY_ENTITY
  5
1EA1
330
1F
100
AcDbEntity
  8
5
  6
CONTINUOUS
100
AcDbProxyEntity
 90
      498
 91
      605
 92
        8
310
0800000000000000
 93
       34
310
1A3B08D003
 94
        0
1001
ACAD
1000
AcadProxyRoundTripData
1071
      584
1071
   655383
1070
     0
  0
ACAD_PROXY_ENTITY
  5
1EAE
330
1F
100
AcDbEntity
  8
5
  6
CONTINUOUS
100
AcDbProxyEntity
 90
      498
 91
      605
 92
        8
310
0800000000000000
 93
       34
310
163B08D003
 94
        0
1001
ACAD
1000
AcadProxyRoundTripData
1071
      584
1071
   655383
1070
     0
  0
ACAD_PROXY_ENTITY
  5
1EAF
330
1F
100
AcDbEntity
  8
5
  6
CONTINUOUS
100
AcDbProxyEntity
 90
      498
 91
      605
 92
        8
310
0800000000000000
 93
       34
310
0C3B08D003
 94
        0
1001
ACAD
1000
AcadProxyRoundTripData
1071
      584
1071
   655383
1070
     0
  0
ACAD_PROXY_ENTITY
  5
1F96
330
1F
100
AcDbEntity
  8
5
  6
CONTINUOUS
100
AcDbProxyEntity
 90
      498
 91
      605
 92
        8
310
0800000000000000
 93
       34
310
103B08D003
 94
        0
1001
ACAD
1000
AcadProxyRoundTripData
1071
      584
1071
   655383
1070
     0
  0
LWPOLYLINE
  5
22C2
330
1F
100
AcDbEntity
  8
最小図面
100
AcDbPolyline
 90
        4
 70
     1
 43
0.0
 10
58.26238504177808
 20
24.15571498617987
 10
58.26238504177808
 20
407.1957149861797
 10
584.102385041778
 20
407.1957149861797
 10
584.102385041778
 20
24.15571498617976
1001
GENIUS_GENREC_14
1002
{
1000
PYDIR
1011
584.102385041778
1021
24.15571498617976
1031
0.0
1002
}
1002
{
1000
PXDIR
1011
58.26238504177808
1021
407.1957149861797
1031
0.0
1002
}
1002
{
1000
PORI
1011
58.26238504177808
1021
24.15571498617987
1031
0.0
1002
}
1002
{
1000
PINS
1011
58.26238504177808
1021
24.15571498617987
1031
0.0
1002
}
1002
{
1000
PINS2
1011
584.102385041778
1021
407.1957149861797
1031
0.0
1002
}
1002
{
1000
C
1070
     1
1002
}
1001
GENIUS_GENODEF_13
1002
{
1000
HIER
1070
     0
1002
}
1002
{
1000
MANEDIT
1070
     0
1002
}
1002
{
1000
NOSEL
1070
     0
1002
}
1002
{
1000
BEHIND
1070
     0
1002
}
1002
{
1000
OTHER
1070
     0
1002
}
1002
{
1000
REACTOR
1002
}
1001
GENIUS_GENOBJ-N-REC_13
1002
{
1000
OWNER
1000
GEN
1002
}
  0
LINE
  5
22C5
330
1F
100
AcDbEntity
  8
最小図面
100
AcDbLine
 10
514.1023850417782
 20
24.15571498617976
 30
0.0
 11
514.1023850417782
 21
39.15571486188603
 31
0.0
  0
LINE
  5
22C6
330
1F
100
AcDbEntity
  8
最小図面
100
AcDbLine
 10
524.1023850417782
 20
24.15571498617976
 30
0.0
 11
524.1023850417782
 21
39.15571486188603
 31
0.0
  0
TEXT
  5
22C9
330
1F
100
AcDbEntity
  8
最小図面
100
AcDbText
 10
534.1023850417777
 20
27.91807155584944
 30
0.0
 40
8.0
  1
MB44RM
 72
     1
 11
554.1023850417778
 21
31.91807155584944
 31
0.0
100
AcDbText
 73
     2
  0
LINE
  5
22CA
330
1F
100
AcDbEntity
  8
最小図面
100
AcDbLine
 10
584.102385041778
 20
39.15571486188603
 30
0.0
 11
514.1023850417782
 21
39.15571486188603
 31
0.0
  0
LINE
  5
22CB
330
1F
100
AcDbEntity
  8
最小図面
100
AcDbLine
 10
584.1023850417777
 20
24.15571486188605
 30
0.0
 11
514.102385041778
 21
24.15571486188605
 31
0.0
  0
TEXT
  5
22CE
330
1F
100
AcDbEntity
  8
最小図面
100
AcDbText
 10
516.302385041778
 20
24.8557148618861
 30
0.0
 40
6.0
  1
番
 72
     1
 11
519.102385041778
 21
27.8557148618861
 31
0.0
100
AcDbText
 73
     2
  0
TEXT
  5
22D0
330
1F
100
AcDbEntity
  8
最小図面
100
AcDbText
 10
516.302385041778
 20
32.8557148618861
 30
0.0
 40
6.0
  1
品
 72
     1
 11
519.102385041778
 21
35.8557148618861
 31
0.0
100
AcDbText
 73
     2
  0
LINE
  5
23DB
330
1F
100
AcDbEntity
  8
最小図面
100
AcDbLine
 10
343.8995322820127
 20
267.42149811871
 30
0.0
 11
359.1823850417778
 21
267.42149811871
 31
0.0
  0
LINE
  5
23DC
330
1F
100
AcDbEntity
  8
最小図面
100
AcDbLine
 10
298.4652378015433
 20
267.42149811871
 30
0.0
 11
283.182385041778
 21
267.42149811871
 31
0.0
  0
LINE
  5
2507
330
1F
100
AcDbEntity
  8
最小図面
100
AcDbLine
 10
352.1823850417781
 20
303.7178459661141
 30
0.0
 11
392.1823850417856
 21
305.7178459661146
 31
0.0
  0
LINE
  5
2559
330
1F
100
AcDbEntity
  8
最小図面
100
AcDbLine
 10
373.4324250970663
 20
249.675706757765
 30
0.0
 11
268.9323449864896
 21
249.6757149861799
 31
0.0
  0
LINE
  5
257F
330
1F
100
AcDbEntity
  8
最小図面
100
AcDbLine
 10
293.1823850417778
 20
249.6757149861799
 30
0.0
 11
293.1823850417778
 21
215.6757149861797
 31
0.0
  0
LINE
  5
2580
330
1F
100
AcDbEntity
  8
最小図面
100
AcDbLine
 10
349.182385041778
 20
249.6757149861799
 30
0.0
 11
349.182385041778
 21
215.6757149861797
 31
0.0
  0
DIMENSION
  5
2599
330
1F
100
AcDbEntity
  8
枠
100
AcDbDimension
  2
*D10
 10
373.4324250970663
 20
104.9666565925604
 30
0.0
 11
321.182385041778
 21
108.2166565925604
 31
0.0
 70
    32
  1
%%c<>
  3
AM_ANSI
100
AcDbAlignedDimension
 13
268.9323449864896
 23
249.675706757765
 33
0.0
 14
373.4324250970663
 24
249.675706757765
 34
0.0
100
AcDbRotatedDimension
  0
DIMENSION
  5
25A6
330
1F
100
AcDbEntity
  8
枠
100
AcDbDimension
  2
*D11
 10
349.182385041778
 20
121.3281466024637
 30
0.0
 11
321.1823850417779
 21
124.5781466024637
 31
0.0
 70
    32
  1
VU50
  3
AM_ANSI
100
AcDbAlignedDimension
 13
293.1823850417778
 23
215.6757149861797
 33
0.0
 14
349.182385041778
 24
215.6757149861797
 34
0.0
100
AcDbRotatedDimension
  0
DIMENSION
  5
25BC
330
1F
100
AcDbEntity
  8
枠
100
AcDbDimension
  2
*D12
 10
239.2873154498555
 20
249.6757149861799
 30
0.0
 11
236.0373154498554
 21
195.92571498618
 31
0.0
 70
    32
  1
108
  3
AM_ANSI
100
AcDbAlignedDimension
 13
310.1823850417781
 23
142.1757149861799
 33
0.0
 14
268.9323449864896
 24
249.6757149861799
 34
0.0
 50
90.0
100
AcDbRotatedDimension
  0
DIMENSION
  5
25ED
330
1F
100
AcDbEntity
  8
枠
100
AcDbDimension
  2
*D13
 10
239.2873154498555
 20
287.6757149861797
 30
0.0
 11
236.0373154498554
 21
268.6757149861799
 31
0.0
 70
    32
  3
AM_ANSI
100
AcDbAlignedDimension
 13
268.9323449864896
 23
249.6757149861799
 33
0.0
 14
300.1457560923066
 24
287.6757149861797
 34
0.0
 50
90.0
100
AcDbRotatedDimension
  0
DIMENSION
  5
2603
330
1F
100
AcDbEntity
  8
枠
100
AcDbDimension
  2
*D14
 10
382.5667604329997
 20
202.6757149861799
 30
0.0
 11
379.3167604329996
 21
177.67571498618
 31
0.0
 70
    32
  3
AM_ANSI
100
AcDbAlignedDimension
 13
341.6823850417781
 23
152.6757149861799
 33
0.0
 14
342.6823850417781
 24
202.6757149861799
 34
0.0
 50
90.0
100
AcDbRotatedDimension
  0
LINE
  5
26AA
330
1F
100
AcDbEntity
  8
最小図面
  6
CONTINUOUS
100
AcDbLine
 10
324.1746067124194
 20
202.6757149861799
 30
0.0
 11
342.6823850417781
 21
202.6757149861799
 31
0.0
  0
LINE
  5
26AC
330
1F
100
AcDbEntity
  8
最小図面
  6
CONTINUOUS
100
AcDbLine
 10
318.1901633711367
 20
202.6757149861799
 30
0.0
 11
299.6823850417781
 21
202.6757149861799
 31
0.0
  0
LINE
  5
26AD
330
1F
100
AcDbEntity
  8
最小図面
100
AcDbLine
 10
349.182385041778
 20
215.6757149861797
 30
0.0
 11
293.4323850417781
 21
215.6757149861799
 31
0.0
  0
LINE
  5
26AE
330
1F
100
AcDbEntity
  8
最小図面
100
AcDbLine
 10
304.3823850417781
 20
202.6757149861799
 30
0.0
 11
304.3823850417781
 21
215.67571498618
 31
0.0
  0
LINE
  5
26AF
330
1F
100
AcDbEntity
  8
最小図面
  6
CONTINUOUS
100
AcDbLine
 10
299.6823850417781
 20
215.67571498618
 30
0.0
 11
299.6823850417781
 21
202.6757149861799
 31
0.0
  0
LINE
  5
26B0
330
1F
100
AcDbEntity
  8
最小図面
  6
CONTINUOUS
100
AcDbLine
 10
324.4181596390996
 20
202.6757149861799
 30
0.0
 11
324.4181596390996
 21
215.67571498618
 31
0.0
  0
LINE
  5
26B1
330
1F
100
AcDbEntity
  8
最小図面
  6
CONTINUOUS
100
AcDbLine
 10
324.1746067124193
 20
215.67571498618
 30
0.0
 11
324.1746067124194
 21
202.6757149861799
 31
0.0
  0
LINE
  5
26B2
330
1F
100
AcDbEntity
  8
最小図面
  6
CONTINUOUS
100
AcDbLine
 10
318.1901633711368
 20
215.67571498618
 30
0.0
 11
318.1901633711367
 21
202.6757149861799
 31
0.0
  0
LINE
  5
26B3
330
1F
100
AcDbEntity
  8
最小図面
  6
CONTINUOUS
100
AcDbLine
 10
317.9466104444565
 20
202.6757149861799
 30
0.0
 11
317.9466104444565
 21
215.67571498618
 31
0.0
  0
LINE
  5
26B4
330
1F
100
AcDbEntity
  8
最小図面
  6
CONTINUOUS
100
AcDbLine
 10
317.9466104444565
 20
202.6757149861799
 30
0.0
 11
317.9118171692167
 21
202.6757149861799
 31
0.0
  0
LINE
  5
26B5
330
1F
100
AcDbEntity
  8
最小図面
  6
CONTINUOUS
100
AcDbLine
 10
324.4181596390996
 20
202.6757149861799
 30
0.0
 11
324.4529529143395
 21
202.6757149861799
 31
0.0
  0
LINE
  5
26B6
330
1F
100
AcDbEntity
  8
最小図面
  6
CONTINUOUS
100
AcDbLine
 10
342.6823850417781
 20
215.67571498618
 30
0.0
 11
342.6823850417781
 21
202.6757149861799
 31
0.0
  0
LINE
  5
26B7
330
1F
100
AcDbEntity
  8
最小図面
100
AcDbLine
 10
337.982385041778
 20
202.6757149861799
 30
0.0
 11
337.982385041778
 21
215.67571498618
 31
0.0
  0
LINE
  5
273A
330
1F
100
AcDbEntity
  8
最小図面
100
AcDbLine
 10
392.1823850417856
 20
305.7178459661146
 30
0.0
 11
392.182385041778
 21
268.717845966114
 31
0.0
  0
ENDSEC
  0
SECTION
  2
OBJECTS
  0
DICTIONARY
  5
C
330
0
100
AcDbDictionary
  3
ACAD_GROUP
350
D
  3
ACAD_LAYOUT
350
1A
  3
ACAD_MLINESTYLE
350
17
  3
ACAD_PLOTSETTINGS
350
19
  3
ACAD_PLOTSTYLENAME
350
E
  3
ACAMCATALOGSTATE
350
11E
  3
ACASAPPOBJECT
350
71
  3
ACASGREF_MASTER
350
B9
  3
ACDBHEADERROUNDTRIPXREC
350
2763
  3
ACDBVARIABLEDICTIONARY
350
37
  3
ACDMSYSVARMGR
350
4C
  3
ACGREF_MASTER
350
44
  3
ACGREFACAD_MASTER
350
6D
  3
ACMDICTIONARY
350
EC
  3
ACME_BOM_MANAGER_NAME
350
3D
  3
ACME_COMMAND_HISTORY
350
36
  3
ACME_SCOPE_NAME
350
35
  3
ACMESTATEMGR
350
42
  3
ACMESYSVARMANAGER
350
39
  3
ACMSYSTEMVARIABLEMANAGER
350
EF
  3
AD_APPL
350
D1
  3
AD_GREF_MODULE
350
BA
  3
AD_HOLENOTE_REPOSITORY
350
D3
  3
AD_MAPI_MODULE
350
D6
  3
ADSYSVARMGR
350
C3
  3
AMDTNAMEDDWGMGR
350
68
  3
AMG
350
2B
  3
AMGSNAPSETTINGS
350
16D
  3
AMI_MASTER
350
70
  3
ASURF_STATIC_VARS
350
72
  3
AUTOCAD_ASSEMBLIES_PROJECT
350
E1
  3
AUTOSURF_SYSVARS
350
73
  3
DESIGNER_ASSEMBLIES_SYSVARS
350
D8
  3
DWGPROPS
350
24F7
  3
GREFAM_MODULE
350
BC
  3
MAPISURF_MODULE
350
BB
  0
DICTIONARY
  5
174
330
1F
100
AcDbDictionary
280
     1
  3
ACAD_INDEX
360
22D8
  3
ACAD_LAYOUTSELFREF
360
2786
  0
DICTIONARY
  5
2784
330
1B
100
AcDbDictionary
280
     1
  3
ACAD_LAYOUTSELFREF
360
2785
  0
DICTIONARY
  5
D
102
{ACAD_REACTORS
330
C
102
}
330
C
100
AcDbDictionary
  0
DICTIONARY
  5
1A
102
{ACAD_REACTORS
330
C
102
}
330
C
100
AcDbDictionary
  0
DICTIONARY
  5
17
102
{ACAD_REACTORS
330
C
102
}
330
C
100
AcDbDictionary
  3
STANDARD
350
18
  0
DICTIONARY
  5
19
102
{ACAD_REACTORS
330
C
102
}
330
C
100
AcDbDictionary
  0
ACDBDICTIONARYWDFLT
  5
E
102
{ACAD_REACTORS
330
C
102
}
330
C
100
AcDbDictionary
281
     1
  3
Normal
350
F
100
AcDbDictionaryWithDefault
340
F
  0
ACAD_PROXY_OBJECT
  5
11E
102
{ACAD_REACTORS
330
C
102
}
330
C
100
AcDbProxyObject
 90
      499
 91
      604
 93
      368
310
3FFFFFFFE00A028140290A19D2E494348DD4BB82E21A0A241B340ADC1AF2E41A541AF41C6C1A7BB37B61A9B400AA65
 94
        0
1001
ACAD
1000
AcadProxyRoundTripData
1071
      575
1071
   655383
1070
     0
  0
ACAD_PROXY_OBJECT
  5
71
102
{ACAD_REACTORS
330
C
102
}
330
C
100
AcDbProxyObject
 90
      499
 91
      604
 93
       10
310
4044
 94
        0
1001
ACAD
1000
AcadProxyRoundTripData
1071
      529
1071
   655383
1070
     0
  0
ACAD_PROXY_OBJECT
  5
B9
102
{ACAD_REACTORS
330
C
102
}
330
C
100
AcDbProxyObject
 90
      499
 91
      604
 93
       34
310
0100004043
 94
        0
1001
ACAD
1000
AcadProxyRoundTripData
1071
      535
1071
   655383
1070
     0
  0
DICTIONARY
  5
2763
102
{ACAD_REACTORS
330
C
102
}
330
C
100
AcDbDictionary
  3
CEPSNTYPE
350
276D
  3
DIMSTYLEDATA
350
2771
  3
FINGERPRINTGUID
350
276E
  3
HYPERLINKBASE
350
2766
  3
INSUNITS
350
276C
  3
LAYOUTDICT
350
2768
  3
LWETCUNION
350
276B
  3
PLOTSETDICT
350
2769
  3
PLOTSTYLNAMDICT
350
276A
  3
PSVPSCALE
350
2770
  3
PUCSBASE
350
2774
  3
PUCSORGBACK
350
277A
  3
PUCSORGBOTTOM
350
2776
  3
PUCSORGFRONT
350
2779
  3
PUCSORGLEFT
350
2777
  3
PUCSORGRIGHT
350
2778
  3
PUCSORGTOP
350
2775
  3
PUCSORTHOREF
350
2772
  3
PUCSORTHOVIEW
350
2773
  3
STYLESHEET
350
2767
  3
TSTACKALIGN
350
2764
  3
TSTACKSIZE
350
2765
  3
UCSBASE
350
277D
  3
UCSORGBACK
350
2783
  3
UCSORGBOTTOM
350
277F
  3
UCSORGFRONT
350
2782
  3
UCSORGLEFT
350
2780
  3
UCSORGRIGHT
350
2781
  3
UCSORGTOP
350
277E
  3
UCSORTHOREF
350
277B
  3
UCSORTHOVIEW
350
277C
  3
VERSIONGUID
350
276F
  0
DICTIONARY
  5
37
102
{ACAD_REACTORS
330
C
102
}
330
C
100
AcDbDictionary
  3
INDEXCTL
350
38
  0
ACAD_PROXY_OBJECT
  5
4C
102
{ACAD_REACTORS
330
C
102
}
330
C
100
AcDbProxyObject
 90
      499
 91
      604
 93
      224
310
4C518472000000000000000000000000000000000000000000000000BE
330
4D
330
4E
330
4F
330
50
330
51
330
52
330
53
330
57
330
58
330
59
330
5A
330
5B
330
5C
330
5D
330
5E
330
5F
330
60
330
61
330
62
330
63
330
64
330
65
330
66
330
67
 94
        0
1001
ACAD
1000
AcadProxyRoundTripData
1071
      508
1071
   655383
1070
     0
  0
ACAD_PROXY_OBJECT
  5
44
102
{ACAD_REACTORS
330
C
102
}
330
C
100
AcDbProxyObject
 90
      499
 91
      604
 93
       34
310
0400004283
 94
        0
1001
ACAD
1000
AcadProxyRoundTripData
1071
      525
1071
   655383
1070
     0
  0
ACAD_PROXY_OBJECT
  5
6D
102
{ACAD_REACTORS
330
C
102
}
330
C
100
AcDbProxyObject
 90
      499
 91
      604
 93
      114
310
04000041C000000000000000000000
 94
        0
1001
ACAD
1000
AcadProxyRoundTripData
1071
      525
1071
   655383
1070
     0
  0
DICTIONARY
  5
EC
102
{ACAD_REACTORS
330
C
102
}
330
C
100
AcDbDictionary
  3
ACMBOM
350
21FC
  3
ACMBOMDATA
350
ED
  3
ACMSTDDICTIONARY
350
F1
  0
ACAD_PROXY_OBJECT
  5
3D
102
{ACAD_REACTORS
330
C
102
}
330
C
100
AcDbProxyObject
 90
      499
 91
      604
 93
       50
310
00010040400025
330
0
330
0
330
3E
 94
        0
1001
ACAD
1000
AcadProxyRoundTripData
1071
      511
1071
   655383
1070
     0
  0
ACAD_PROXY_OBJECT
  5
36
102
{ACAD_REACTORS
330
C
102
}
330
C
100
AcDbProxyObject
 90
      499
 91
      604
 93
     2412
310
47805054552415345805054552415345805054552415345805045452494D805054552415345805054552415345805054552415345805045452494D805045452494D805045452494D8050E414D4454524553455444424D4F4440805084E202D20554E444F014213880B4815539113C0504554E444F80504554E444F80504554
310
E444F80504554E444F80504554E444F8050844524F5047454F4D805054552415345805054552415345805044D4F564540405184D5347202D20436F6D6D616E642043414E43454C4C45442E01411353D5916014390535115149154D15511109353D1102014213880B4815539113C05084E202D20554E444F014115539113E01
310
4115539113E014115539113E014115539113E014115539113E014151549054D1601415454D05591601415454D0559161
 94
        0
1001
ACAD
1000
AcadProxyRoundTripData
1071
      506
1071
   655383
1070
     0
  0
ACAD_PROXY_OBJECT
  5
35
102
{ACAD_REACTORS
330
C
102
}
330
C
100
AcDbProxyObject
 90
      499
 91
      604
 93
     1322
310
05000044000000000000000000001906520000000000000000000000000000000000000000000000000000000000000000000000000000000000000000000000000000000000000000000000000000000000000000000000000000000000000000000000000000000000000000000000000000000000000000000000000000
310
00000000000000000000000000000000000000000000000000000000000000000000AAA406AA81
360
3A
360
3B
360
3C
360
3E
360
45
360
46
360
47
360
48
360
49
360
4A
360
4D
360
4E
360
4F
360
50
360
51
360
52
360
53
360
57
360
58
360
59
360
5A
360
5B
360
5C
360
5D
360
5E
360
5F
360
60
360
61
360
62
360
63
360
64
360
65
360
66
360
67
360
74
360
75
360
76
360
77
360
78
360
79
360
7A
360
7B
360
7C
360
7D
360
7E
360
7F
360
80
360
81
360
82
360
83
360
84
360
85
360
86
360
87
360
88
360
89
360
8A
360
8B
360
8C
360
8D
360
8E
360
8F
360
90
360
91
360
92
360
93
360
94
360
95
360
96
360
97
360
98
360
99
360
9A
360
9B
360
9C
360
9D
360
9E
360
9F
360
A0
360
A1
360
A2
360
A3
360
A4
360
A5
360
A6
360
A7
360
A8
360
A9
360
AA
360
AB
360
AC
360
AD
360
AE
360
AF
360
B0
360
B1
360
B2
360
B3
360
B4
360
B5
360
BF
360
C0
360
C1
360
C2
360
C4
360
C5
360
C6
360
C7
360
C8
360
C9
360
CA
360
CB
360
CC
360
CD
360
CE
360
CF
360
D0
360
D2
360
D4
360
D9
360
DA
360
DB
360
DC
360
DD
360
DE
360
DF
360
E0
360
E5
360
E6
360
E7
360
E8
360
E9
360
EA
360
F0
360
15C
360
2201
360
2223
360
2227
360
222B
360
222F
360
2233
360
223B
360
223D
360
2241
 94
        0
1001
ACAD
1000
AcadProxyRoundTripData
1071
      505
1071
   655383
1070
     0
  0
ACAD_PROXY_OBJECT
  5
42
102
{ACAD_REACTORS
330
C
102
}
330
C
100
AcDbProxyObject
 90
      499
 91
      604
 93
       50
310
050000412412A5
 94
        0
1001
ACAD
1000
AcadProxyRoundTripData
1071
      516
1071
   655383
1070
     0
  0
ACAD_PROXY_OBJECT
  5
39
102
{ACAD_REACTORS
330
C
102
}
330
C
100
AcDbProxyObject
 90
      499
 91
      604
 93
       48
310
90341200000011
330
3A
330
3B
330
3C
 94
        0
1001
ACAD
1000
AcadProxyRoundTripData
1071
      508
1071
   655383
1070
     0
  0
ACAD_PROXY_OBJECT
  5
EF
102
{ACAD_REACTORS
330
C
102
}
330
C
100
AcDbProxyObject
 90
      499
 91
      604
 93
       32
310
90140A00B5
330
F0
 94
        0
1001
ACAD
1000
AcadProxyRoundTripData
1071
      508
1071
   655383
1070
     0
  0
ACAD_PROXY_OBJECT
  5
D1
102
{ACAD_REACTORS
330
C
102
}
330
C
100
AcDbProxyObject
 90
      499
 91
      604
 93
       42
310
000500004384
330
BF
 94
        0
1001
ACAD
1000
AcadProxyRoundTripData
1071
      544
1071
   655383
1070
     0
  0
ACAD_PROXY_OBJECT
  5
BA
102
{ACAD_REACTORS
330
C
102
}
330
C
100
AcDbProxyObject
 90
      499
 91
      604
 93
      114
310
000000438000000000000000000007
 94
        0
1001
ACAD
1000
AcadProxyRoundTripData
1071
      536
1071
   655383
1070
     0
  0
ACAD_PROXY_OBJECT
  5
D3
102
{ACAD_REACTORS
330
C
102
}
330
C
100
AcDbProxyObject
 90
      499
 91
      604
 93
        8
310
0001
330
D2
 94
        0
1001
ACAD
1000
AcadProxyRoundTripData
1071
      546
1071
   655383
1070
     0
  0
ACAD_PROXY_OBJECT
  5
D6
102
{ACAD_REACTORS
330
C
102
}
330
C
100
AcDbProxyObject
 90
      499
 91
      604
 93
       34
310
05000044C3
 94
        0
1001
ACAD
1000
AcadProxyRoundTripData
1071
      548
1071
   655383
1070
     0
  0
ACAD_PROXY_OBJECT
  5
C3
102
{ACAD_REACTORS
330
C
102
}
330
C
100
AcDbProxyObject
 90
      499
 91
      604
 93
      136
310
90E44A000000000000000000000000000040
330
C4
330
C5
330
C6
330
C7
330
C8
330
C9
330
CA
330
CB
330
CC
330
CD
330
CE
330
CF
330
D0
330
D4
 94
        0
1001
ACAD
1000
AcadProxyRoundTripData
1071
      508
1071
   655383
1070
     0
  0
ACAD_PROXY_OBJECT
  5
68
102
{ACAD_REACTORS
330
C
102
}
330
C
100
AcDbProxyObject
 90
      499
 91
      604
 93
       42
310
000100005584
330
45
 94
        0
1001
ACAD
1000
AcadProxyRoundTripData
1071
      522
1071
   655383
1070
     0
  0
DICTIONARY
  5
2B
102
{ACAD_REACTORS
330
C
102
}
330
C
100
AcDbDictionary
  3
ACMGSETTINGS
350
2C
  3
AMGLAYCFG
350
F3
  0
DICTIONARY
  5
16D
102
{ACAD_REACTORS
330
C
102
}
330
C
100
AcDbDictionary
  3
DIMENSION
350
172
  3
FEA
350
171
  3
HATCH__1_
350
16E
  3
HATCH__2_
350
16F
  3
SIMPLE_WELD
350
173
  3
SYMBOLS
350
170
  0
ACAD_PROXY_OBJECT
  5
70
102
{ACAD_REACTORS
330
C
102
}
330
C
100
AcDbProxyObject
 90
      499
 91
      604
 93
       34
310
0500004283
 94
        0
1001
ACAD
1000
AcadProxyRoundTripData
1071
      528
1071
   655383
1070
     0
  0
ACAD_PROXY_OBJECT
  5
72
102
{ACAD_REACTORS
330
C
102
}
330
C
100
AcDbProxyObject
 90
      499
 91
      604
 93
      424
310
585314D60000000000000000000000000000000000000000000000000000000000000000000000000000000000000000000000000000
330
85
330
86
330
87
330
88
330
89
330
8A
330
8B
330
8C
330
8D
330
8E
330
8F
330
90
330
91
330
92
330
93
330
94
330
95
330
96
330
97
330
98
330
99
330
9A
330
9B
330
9C
330
9D
330
9E
330
9F
330
A0
330
A1
330
A2
330
A3
330
A4
330
A5
330
A6
330
A7
330
A8
330
A9
330
AA
330
AB
330
AC
330
AD
330
AE
330
AF
330
B0
330
B1
330
B2
330
B3
330
B4
330
B5
 94
        0
1001
ACAD
1000
AcadProxyRoundTripData
1071
      530
1071
   655383
1070
     0
  0
ACAD_PROXY_OBJECT
  5
E1
102
{ACAD_REACTORS
330
C
102
}
330
C
100
AcDbProxyObject
 90
      499
 91
      604
 93
       74
310
0500004980000000000C
330
E8
330
0
330
E9
330
0
330
0
 94
        0
1001
ACAD
1000
AcadProxyRoundTripData
1071
      550
1071
   655383
1070
     0
  0
ACAD_PROXY_OBJECT
  5
73
102
{ACAD_REACTORS
330
C
102
}
330
C
100
AcDbProxyObject
 90
      499
 91
      604
 93
      168
310
4C511456000000000000000000000000000000000005
330
74
330
75
330
76
330
77
330
78
330
79
330
7A
330
7B
330
7C
330
7D
330
7E
330
7F
330
80
330
81
330
82
330
83
330
84
 94
        0
1001
ACAD
1000
AcadProxyRoundTripData
1071
      508
1071
   655383
1070
     0
  0
ACAD_PROXY_OBJECT
  5
D8
102
{ACAD_REACTORS
330
C
102
}
330
C
100
AcDbProxyObject
 90
      499
 91
      604
 93
       88
310
90843200000000000000000E
330
D9
330
DA
330
DB
330
DC
330
DD
330
DE
330
DF
330
E0
 94
        0
1001
ACAD
1000
AcadProxyRoundTripData
1071
      508
1071
   655383
1070
     0
  0
XRECORD
  5
24F7
102
{ACAD_REACTORS
330
C
102
}
330
C
100
AcDbXrecord
  1
DWGPROPS COOKIE
  2

  3

  4

  6

  7

  8

  9

300
AmdtFileType=84
301
=
302
=
303
=
304
=
305
=
306
=
307
=
308
=
309
=
 40
0.1073324652777778
 41
2454336.633386759
 42
2454524.490840509
  1

 90
        1
  0
ACAD_PROXY_OBJECT
  5
BC
102
{ACAD_REACTORS
330
C
102
}
330
C
100
AcDbProxyObject
 90
      499
 91
      604
 93
        8
310
0506
 94
        0
1001
ACAD
1000
AcadProxyRoundTripData
1071
      538
1071
   655383
1070
     0
  0
ACAD_PROXY_OBJECT
  5
BB
102
{ACAD_REACTORS
330
C
102
}
330
C
100
AcDbProxyObject
 90
      499
 91
      604
 93
        8
310
0401
 94
        0
1001
ACAD
1000
AcadProxyRoundTripData
1071
      537
1071
   655383
1070
     0
  0
DICTIONARY
  5
22D8
102
{ACAD_REACTORS
330
174
102
}
330
174
100
AcDbDictionary
  3
*A1
350
22D9
  0
XRECORD
  5
2786
102
{ACAD_REACTORS
330
174
102
}
330
174
100
AcDbXrecord
340
1F
  0
XRECORD
  5
2785
102
{ACAD_REACTORS
330
2784
102
}
330
2784
100
AcDbXrecord
340
1B
  0
MLINESTYLE
  5
18
102
{ACAD_REACTORS
330
17
102
}
330
17
100
AcDbMlineStyle
  2
STANDARD
 70
     0
  3

 62
   256
 51
90.0
 52
90.0
 71
     2
 49
0.5
 62
   256
  6
BYLAYER
 49
-0.5
 62
   256
  6
BYLAYER
  0
ACDBPLACEHOLDER
  5
F
102
{ACAD_REACTORS
330
E
102
}
330
E
100
AcDbPlaceHolder
280
     0
  0
XRECORD
  5
276D
102
{ACAD_REACTORS
330
2763
102
}
330
2763
100
AcDbXrecord
 90
        0
  0
XRECORD
  5
2771
102
{ACAD_REACTORS
330
2763
102
}
330
2763
100
AcDbXrecord
1000
DSTYLE
1002
{
1070
    79
 70
     2
1070
   371
 70
    -1
1070
   372
 70
    -1
1002
}
  0
XRECORD
  5
276E
102
{ACAD_REACTORS
330
2763
102
}
330
2763
100
AcDbXrecord
  1
{BA106659-B37F-4441-96E9-5909341DEE59}
  0
XRECORD
  5
2766
102
{ACAD_REACTORS
330
2763
102
}
330
2763
100
AcDbXrecord
  1

  0
XRECORD
  5
276C
102
{ACAD_REACTORS
330
2763
102
}
330
2763
100
AcDbXrecord
 90
        4
  0
XRECORD
  5
2768
102
{ACAD_REACTORS
330
2763
102
}
330
2763
100
AcDbXrecord
340
1A
  0
XRECORD
  5
276B
102
{ACAD_REACTORS
330
2763
102
}
330
2763
100
AcDbXrecord
 90
    10781
  0
XRECORD
  5
2769
102
{ACAD_REACTORS
330
2763
102
}
330
2763
100
AcDbXrecord
340
19
  0
XRECORD
  5
276A
102
{ACAD_REACTORS
330
2763
102
}
330
2763
100
AcDbXrecord
340
E
  0
XRECORD
  5
2770
102
{ACAD_REACTORS
330
2763
102
}
330
2763
100
AcDbXrecord
 40
0.0
  0
XRECORD
  5
2774
102
{ACAD_REACTORS
330
2763
102
}
330
2763
100
AcDbXrecord
340
0
  0
XRECORD
  5
277A
102
{ACAD_REACTORS
330
2763
102
}
330
2763
100
AcDbXrecord
 10
0.0
 20
0.0
 30
0.0
  0
XRECORD
  5
2776
102
{ACAD_REACTORS
330
2763
102
}
330
2763
100
AcDbXrecord
 10
0.0
 20
0.0
 30
0.0
  0
XRECORD
  5
2779
102
{ACAD_REACTORS
330
2763
102
}
330
2763
100
AcDbXrecord
 10
0.0
 20
0.0
 30
0.0
  0
XRECORD
  5
2777
102
{ACAD_REACTORS
330
2763
102
}
330
2763
100
AcDbXrecord
 10
0.0
 20
0.0
 30
0.0
  0
XRECORD
  5
2778
102
{ACAD_REACTORS
330
2763
102
}
330
2763
100
AcDbXrecord
 10
0.0
 20
0.0
 30
0.0
  0
XRECORD
  5
2775
102
{ACAD_REACTORS
330
2763
102
}
330
2763
100
AcDbXrecord
 10
0.0
 20
0.0
 30
0.0
  0
XRECORD
  5
2772
102
{ACAD_REACTORS
330
2763
102
}
330
2763
100
AcDbXrecord
340
0
  0
XRECORD
  5
2773
102
{ACAD_REACTORS
330
2763
102
}
330
2763
100
AcDbXrecord
 70
     0
  0
XRECORD
  5
2767
102
{ACAD_REACTORS
330
2763
102
}
330
2763
100
AcDbXrecord
  1
monochrome.ctb
  0
XRECORD
  5
2764
102
{ACAD_REACTORS
330
2763
102
}
330
2763
100
AcDbXrecord
 90
        1
  0
XRECORD
  5
2765
102
{ACAD_REACTORS
330
2763
102
}
330
2763
100
AcDbXrecord
 90
       70
  0
XRECORD
  5
277D
102
{ACAD_REACTORS
330
2763
102
}
330
2763
100
AcDbXrecord
340
0
  0
XRECORD
  5
2783
102
{ACAD_REACTORS
330
2763
102
}
330
2763
100
AcDbXrecord
 10
0.0
 20
0.0
 30
0.0
  0
XRECORD
  5
277F
102
{ACAD_REACTORS
330
2763
102
}
330
2763
100
AcDbXrecord
 10
0.0
 20
0.0
 30
0.0
  0
XRECORD
  5
2782
102
{ACAD_REACTORS
330
2763
102
}
330
2763
100
AcDbXrecord
 10
0.0
 20
0.0
 30
0.0
  0
XRECORD
  5
2780
102
{ACAD_REACTORS
330
2763
102
}
330
2763
100
AcDbXrecord
 10
0.0
 20
0.0
 30
0.0
  0
XRECORD
  5
2781
102
{ACAD_REACTORS
330
2763
102
}
330
2763
100
AcDbXrecord
 10
0.0
 20
0.0
 30
0.0
  0
XRECORD
  5
277E
102
{ACAD_REACTORS
330
2763
102
}
330
2763
100
AcDbXrecord
 10
0.0
 20
0.0
 30
0.0
  0
XRECORD
  5
277B
102
{ACAD_REACTORS
330
2763
102
}
330
2763
100
AcDbXrecord
340
0
  0
XRECORD
  5
277C
102
{ACAD_REACTORS
330
2763
102
}
330
2763
100
AcDbXrecord
 70
     0
  0
XRECORD
  5
276F
102
{ACAD_REACTORS
330
2763
102
}
330
2763
100
AcDbXrecord
  1
{25F99ABA-286D-4DFF-A492-E6DD387449CD}
  0
DICTIONARYVAR
  5
38
102
{ACAD_REACTORS
330
37
102
}
330
37
100
DictionaryVariables
280
     0
  1
1
  0
DICTIONARY
  5
21FC
102
{ACAD_REACTORS
330
EC
102
}
330
EC
100
AcDbDictionary
  3
*A1
350
21FD
  0
ACAD_PROXY_OBJECT
  5
ED
102
{ACAD_REACTORS
330
EC
102
}
330
EC
100
AcDbProxyObject
 90
      499
 91
      604
 93
      432
310
429010040CA904C5042A41313040CA904C9032A413340CA904D1032A413540CA904D9032A413740CA904E1032A4139057356C1D5145241
350
EE
350
2231
350
2236
350
2239
350
223F
350
21FE
350
2221
350
2225
350
2229
350
222D
 94
        0
1001
ACAD
1000
AcadProxyRoundTripData
1071
      557
1071
   655383
1070
     0
  0
DICTIONARY
  5
F1
102
{ACAD_REACTORS
330
EC
102
}
330
EC
100
AcDbDictionary
  3
ANSI
350
2205
  3
ISO
350
F2
  0
ACAD_PROXY_OBJECT
  5
3A
330
0
100
AcDbProxyObject
 90
      499
 91
      604
 93
      156
310
00010143D050D351505391D5531054925390D492
330
35
 94
        0
1001
ACAD
1000
AcadProxyRoundTripData
1071
      509
1071
   655383
1070
     0
  0
ACAD_PROXY_OBJECT
  5
3B
330
0
100
AcDbProxyObject
 90
      499
 91
      604
 93
      148
310
000101439050D351531253915054925390D490
330
35
 94
        0
1001
ACAD
1000
AcadProxyRoundTripData
1071
      509
1071
   655383
1070
     0
  0
ACAD_PROXY_OBJECT
  5
3C
330
0
100
AcDbProxyObject
 90
      499
 91
      604
 93
      156
310
000101439050D35154D6535093D314D256915082
330
35
 94
        0
1001
ACAD
1000
AcadProxyRoundTripData
1071
      510
1071
   655383
1070
     0
  0
ACAD_PROXY_OBJECT
  5
3E
330
0
100
AcDbProxyObject
 90
      499
 91
      604
 93
      120
310
000101422565255A6557080C402B0000
330
35
330
0
330
0
 94
        0
1001
ACAD
1000
AcadProxyRoundTripData
1071
      512
1071
   655383
1070
     0
  0
ACAD_PROXY_OBJECT
  5
45
330
0
100
AcDbProxyObject
 90
      499
 91
      604
 93
      366
310
0001014124FEA55D00507352E312E342E31014124FEA55D00508352E312E322E313340501000041505391D311658
330
35
330
46
330
4C
 94
        0
1001
ACAD
1000
AcadProxyRoundTripData
1071
      518
1071
   655383
1070
     0
  0
ACAD_PROXY_OBJECT
  5
46
330
0
100
AcDbProxyObject
 90
      499
 91
      604
 93
       56
310
000190240E000056
330
35
330
47
330
49
 94
        0
1001
ACAD
1000
AcadProxyRoundTripData
1071
      519
1071
   655383
1070
     0
  0
ACAD_PROXY_OBJECT
  5
47
330
0
100
AcDbProxyObject
 90
      499
 91
      604
 93
       48
310
0001AA00000011
330
35
330
1E
330
48
330
0
 94
        0
1001
ACAD
1000
AcadProxyRoundTripData
1071
      520
1071
   655383
1070
     0
  0
ACAD_PROXY_OBJECT
  5
48
330
0
100
AcDbProxyObject
 90
      499
 91
      604
 93
       28
310
0001AAA5
330
35
 94
        0
1001
ACAD
1000
AcadProxyRoundTripData
1071
      521
1071
   655383
1070
     0
  0
ACAD_PROXY_OBJECT
  5
49
330
0
100
AcDbProxyObject
 90
      499
 91
      604
 93
       48
310
0001AA00000011
330
35
330
26
330
4A
330
0
 94
        0
1001
ACAD
1000
AcadProxyRoundTripData
1071
      520
1071
   655383
1070
     0
  0
ACAD_PROXY_OBJECT
  5
4A
330
0
100
AcDbProxyObject
 90
      499
 91
      604
 93
       28
310
0001AAA5
330
35
 94
        0
1001
ACAD
1000
AcadProxyRoundTripData
1071
      521
1071
   655383
1070
     0
  0
ACAD_PROXY_OBJECT
  5
4D
330
0
100
AcDbProxyObject
 90
      499
 91
      604
 93
      108
310
000101421053521310D05310D013
330
35
 94
        0
1001
ACAD
1000
AcadProxyRoundTripData
1071
      510
1071
   655383
1070
     0
  0
ACAD_PROXY_OBJECT
  5
4E
330
0
100
AcDbProxyObject
 90
      499
 91
      604
 93
      124
310
00010142905354915554D15112535013
330
35
 94
        0
1001
ACAD
1000
AcadProxyRoundTripData
1071
      510
1071
   655383
1070
     0
  0
ACAD_PROXY_OBJECT
  5
4F
330
0
100
AcDbProxyObject
 90
      499
 91
      604
 93
      132
310
00010143105354D150D51253D391125362
330
35
 94
        0
1001
ACAD
1000
AcadProxyRoundTripData
1071
      510
1071
   655383
1070
     0
  0
ACAD_PROXY_OBJECT
  5
50
330
0
100
AcDbProxyObject
 90
      499
 91
      604
 93
      124
310
00010142905355941093D49111549014
330
35
 94
        0
1001
ACAD
1000
AcadProxyRoundTripData
1071
      510
1071
   655383
1070
     0
  0
ACAD_PROXY_OBJECT
  5
51
330
0
100
AcDbProxyObject
 90
      499
 91
      604
 93
      116
310
0001014290535115D1D0D3D313D4A1
330
35
 94
        0
1001
ACAD
1000
AcadProxyRoundTripData
1071
      510
1071
   655383
1070
     0
  0
ACAD_PROXY_OBJECT
  5
52
330
0
100
AcDbProxyObject
 90
      499
 91
      604
 93
      148
310
00010143505355925155D49151949154D21015
330
35
 94
        0
1001
ACAD
1000
AcadProxyRoundTripData
1071
      510
1071
   655383
1070
     0
  0
ACAD_PROXY_OBJECT
  5
53
330
0
100
AcDbProxyObject
 90
      499
 91
      604
 93
      172
310
00010144105350539393D51154149154D15495915010
330
35
 94
        0
1001
ACAD
1000
AcadProxyRoundTripData
1071
      510
1071
   655383
1070
     0
  0
ACAD_PROXY_OBJECT
  5
57
330
0
100
AcDbProxyObject
 90
      499
 91
      604
 93
      172
310
00010144105350555513D11253505494905391D15010
330
35
 94
        0
1001
ACAD
1000
AcadProxyRoundTripData
1071
      510
1071
   655383
1070
     0
  0
ACAD_PROXY_OBJECT
  5
58
330
0
100
AcDbProxyObject
 90
      499
 91
      604
 93
      124
310
00010142D05351561514915191125360
330
35
 94
        0
1001
ACAD
1000
AcadProxyRoundTripData
1071
      510
1071
   655383
1070
     0
  0
ACAD_PROXY_OBJECT
  5
59
330
0
100
AcDbProxyObject
 90
      499
 91
      604
 93
      132
310
00010142D05355105410539393D5115013
330
35
 94
        0
1001
ACAD
1000
AcadProxyRoundTripData
1071
      510
1071
   655383
1070
     0
  0
ACAD_PROXY_OBJECT
  5
5A
330
0
100
AcDbProxyObject
 90
      499
 91
      604
 93
      108
310
00010142105350555513D0D31013
330
35
 94
        0
1001
ACAD
1000
AcadProxyRoundTripData
1071
      510
1071
   655383
1070
     0
  0
ACAD_PROXY_OBJECT
  5
5B
330
0
100
AcDbProxyObject
 90
      499
 91
      604
 93
      108
310
00010142105350D3119150551053
330
35
 94
        0
1001
ACAD
1000
AcadProxyRoundTripData
1071
      510
1071
   655383
1070
     0
  0
ACAD_PROXY_OBJECT
  5
5C
330
0
100
AcDbProxyObject
 90
      499
 91
      604
 93
      108
310
00010142105350D315925155D3F3
330
35
 94
        0
1001
ACAD
1000
AcadProxyRoundTripData
1071
      510
1071
   655383
1070
     0
  0
ACAD_PROXY_OBJECT
  5
5D
330
0
100
AcDbProxyObject
 90
      499
 91
      604
 93
      148
310
0001014350535212511156915493D112535010
330
35
 94
        0
1001
ACAD
1000
AcadProxyRoundTripData
1071
      510
1071
   655383
1070
     0
  0
ACAD_PROXY_OBJECT
  5
5E
330
0
100
AcDbProxyObject
 90
      499
 91
      604
 93
      116
310
00010142905352105510D21254D3E5
330
35
 94
        0
1001
ACAD
1000
AcadProxyRoundTripData
1071
      510
1071
   655383
1070
     0
  0
ACAD_PROXY_OBJECT
  5
5F
330
0
100
AcDbProxyObject
 90
      499
 91
      604
 93
      148
310
00010143905354D25391D31152105513105660
330
35
 94
        0
1001
ACAD
1000
AcadProxyRoundTripData
1071
      510
1071
   655383
1070
     0
  0
ACAD_PROXY_OBJECT
  5
60
330
0
100
AcDbProxyObject
 90
      499
 91
      604
 93
      124
310
00010142D0535115D1D193111254D424
330
35
 94
        0
1001
ACAD
1000
AcadProxyRoundTripData
1071
      510
1071
   655383
1070
     0
  0
ACAD_PROXY_OBJECT
  5
61
330
0
100
AcDbProxyObject
 90
      499
 91
      604
 93
      100
310
00010142105350555513D213A5
330
35
 94
        0
1001
ACAD
1000
AcadProxyRoundTripData
1071
      510
1071
   655383
1070
     0
  0
ACAD_PROXY_OBJECT
  5
62
330
0
100
AcDbProxyObject
 90
      499
 91
      604
 93
      116
310
000101425053521390D3D553951013
330
35
 94
        0
1001
ACAD
1000
AcadProxyRoundTripData
1071
      510
1071
   655383
1070
     0
  0
ACAD_PROXY_OBJECT
  5
63
330
0
100
AcDbProxyObject
 90
      499
 91
      604
 93
      108
310
0001014210535213941493D29010
330
35
 94
        0
1001
ACAD
1000
AcadProxyRoundTripData
1071
      510
1071
   655383
1070
     0
  0
ACAD_PROXY_OBJECT
  5
64
330
0
100
AcDbProxyObject
 90
      499
 91
      604
 93
      108
310
0001014210535213951654115070
330
35
 94
        0
1001
ACAD
1000
AcadProxyRoundTripData
1071
      510
1071
   655383
1070
     0
  0
ACAD_PROXY_OBJECT
  5
65
330
0
100
AcDbProxyObject
 90
      499
 91
      604
 93
      108
310
000101421053521395925155D0F0
330
35
 94
        0
1001
ACAD
1000
AcadProxyRoundTripData
1071
      510
1071
   655383
1070
     0
  0
ACAD_PROXY_OBJECT
  5
66
330
0
100
AcDbProxyObject
 90
      499
 91
      604
 93
      140
310
00010143505354D150D51253D390D3D41660
330
35
 94
        0
1001
ACAD
1000
AcadProxyRoundTripData
1071
      510
1071
   655383
1070
     0
  0
ACAD_PROXY_OBJECT
  5
67
330
0
100
AcDbProxyObject
 90
      499
 91
      604
 93
      108
310
00010142105350D3141493D29030
330
35
 94
        0
1001
ACAD
1000
AcadProxyRoundTripData
1071
      510
1071
   655383
1070
     0
  0
ACAD_PROXY_OBJECT
  5
74
330
0
100
AcDbProxyObject
 90
      499
 91
      604
 93
      116
310
000101425053541051D15311539191
330
35
 94
        0
1001
ACAD
1000
AcadProxyRoundTripData
1071
      510
1071
   655383
1070
     0
  0
ACAD_PROXY_OBJECT
  5
75
330
0
100
AcDbProxyObject
 90
      499
 91
      604
 93
      108
310
000101421053555312539154D053
330
35
 94
        0
1001
ACAD
1000
AcadProxyRoundTripData
1071
      510
1071
   655383
1070
     0
  0
ACAD_PROXY_OBJECT
  5
76
330
0
100
AcDbProxyObject
 90
      499
 91
      604
 93
      108
310
000101421053559312539154D033
330
35
 94
        0
1001
ACAD
1000
AcadProxyRoundTripData
1071
      510
1071
   655383
1070
     0
  0
ACAD_PROXY_OBJECT
  5
77
330
0
100
AcDbProxyObject
 90
      499
 91
      604
 93
      140
310
00010143105354D1911254D41353D111501A
330
35
 94
        0
1001
ACAD
1000
AcadProxyRoundTripData
1071
      510
1071
   655383
1070
     0
  0
ACAD_PROXY_OBJECT
  5
78
330
0
100
AcDbProxyObject
 90
      499
 91
      604
 93
      172
310
00010142505354119255105391C1C052DC9A6F104403
330
35
 94
        0
1001
ACAD
1000
AcadProxyRoundTripData
1071
      509
1071
   655383
1070
     0
  0
ACAD_PROXY_OBJECT
  5
79
330
0
100
AcDbProxyObject
 90
      499
 91
      604
 93
      164
310
000101421053559150D05551C000000000000E03F8
330
35
 94
        0
1001
ACAD
1000
AcadProxyRoundTripData
1071
      509
1071
   655383
1070
     0
  0
ACAD_PROXY_OBJECT
  5
7A
330
0
100
AcDbProxyObject
 90
      499
 91
      604
 93
      180
310
00010142905350931153911513D307B14AE47E17A843F3
330
35
 94
        0
1001
ACAD
1000
AcadProxyRoundTripData
1071
      509
1071
   655383
1070
     0
  0
ACAD_PROXY_OBJECT
  5
7B
330
0
100
AcDbProxyObject
 90
      499
 91
      604
 93
      172
310
0001014250535293D25391D05407B14AE47E17A843F8
330
35
 94
        0
1001
ACAD
1000
AcadProxyRoundTripData
1071
      509
1071
   655383
1070
     0
  0
ACAD_PROXY_OBJECT
  5
7C
330
0
100
AcDbProxyObject
 90
      499
 91
      604
 93
      172
310
000101425053541192551311538000000FC83D797418
330
35
 94
        0
1001
ACAD
1000
AcadProxyRoundTripData
1071
      509
1071
   655383
1070
     0
  0
ACAD_PROXY_OBJECT
  5
7D
330
0
100
AcDbProxyObject
 90
      499
 91
      604
 93
      156
310
00010141D053559150D4D18000000000000E03F8
330
35
 94
        0
1001
ACAD
1000
AcadProxyRoundTripData
1071
      509
1071
   655383
1070
     0
  0
ACAD_PROXY_OBJECT
  5
7E
330
0
100
AcDbProxyObject
 90
      499
 91
      604
 93
      156
310
00010141D05354D19513D309A9999999999993F8
330
35
 94
        0
1001
ACAD
1000
AcadProxyRoundTripData
1071
      509
1071
   655383
1070
     0
  0
ACAD_PROXY_OBJECT
  5
7F
330
0
100
AcDbProxyObject
 90
      499
 91
      604
 93
      172
310
000101425053541192551513D307B14AE47E17A843F8
330
35
 94
        0
1001
ACAD
1000
AcadProxyRoundTripData
1071
      509
1071
   655383
1070
     0
  0
ACAD_PROXY_OBJECT
  5
80
330
0
100
AcDbProxyObject
 90
      499
 91
      604
 93
      188
310
00010142D05354D151D192551513D307B14AE47E17A843F0
330
35
 94
        0
1001
ACAD
1000
AcadProxyRoundTripData
1071
      509
1071
   655383
1070
     0
  0
ACAD_PROXY_OBJECT
  5
81
330
0
100
AcDbProxyObject
 90
      499
 91
      604
 93
      148
310
000101419053541311538000000FC83D79741F
330
35
 94
        0
1001
ACAD
1000
AcadProxyRoundTripData
1071
      509
1071
   655383
1070
     0
  0
ACAD_PROXY_OBJECT
  5
82
330
0
100
AcDbProxyObject
 90
      499
 91
      604
 93
      172
310
00010142505354105391D513D301C052DC9A6F104402
330
35
 94
        0
1001
ACAD
1000
AcadProxyRoundTripData
1071
      509
1071
   655383
1070
     0
  0
ACAD_PROXY_OBJECT
  5
83
330
0
100
AcDbProxyObject
 90
      499
 91
      604
 93
      132
310
0001014114D25691400000000000024404
330
35
 94
        0
1001
ACAD
1000
AcadProxyRoundTripData
1071
      509
1071
   655383
1070
     0
  0
ACAD_PROXY_OBJECT
  5
84
330
0
100
AcDbProxyObject
 90
      499
 91
      604
 93
      156
310
00010142905351D4941491519256005034153470
330
35
 94
        0
1001
ACAD
1000
AcadProxyRoundTripData
1071
      531
1071
   655383
1070
     0
  0
ACAD_PROXY_OBJECT
  5
85
330
0
100
AcDbProxyObject
 90
      499
 91
      604
 93
      314
310
00014080509646973745363616C650000000000003C2FC000000000000F0BF0000003F20F5E5D050
330
35
 94
        0
1001
ACAD
1000
AcadProxyRoundTripData
1071
      532
1071
   655383
1070
     0
  0
ACAD_PROXY_OBJECT
  5
86
330
0
100
AcDbProxyObject
 90
      499
 91
      604
 93
      322
310
0001408050A65646175526F74617465060B51153EC87E4FC182D4454FB2119C0060B51153EC8465004
330
35
 94
        0
1001
ACAD
1000
AcadProxyRoundTripData
1071
      532
1071
   655383
1070
     0
  0
ACAD_PROXY_OBJECT
  5
87
330
0
100
AcDbProxyObject
 90
      499
 91
      604
 93
      314
310
00014080509656461755477697374060B51153EC846500000000FC83D797C10000003F20F5E5D050
330
35
 94
        0
1001
ACAD
1000
AcadProxyRoundTripData
1071
      532
1071
   655383
1070
     0
  0
ACAD_PROXY_OBJECT
  5
88
330
0
100
AcDbProxyObject
 90
      499
 91
      604
 93
      294
310
000140C050A656467654F75747075740144F3B7F635ECB74A140A4817D41BDB1E5B1A5B994
330
35
 94
        0
1001
ACAD
1000
AcadProxyRoundTripData
1071
      533
1071
   655383
1070
     0
  0
ACAD_PROXY_OBJECT
  5
89
330
0
100
AcDbProxyObject
 90
      499
 91
      604
 93
      154
310
0001404050B65646974507265766965774064040
330
35
 94
        0
1001
ACAD
1000
AcadProxyRoundTripData
1071
      534
1071
   655383
1070
     0
  0
ACAD_PROXY_OBJECT
  5
8A
330
0
100
AcDbProxyObject
 90
      499
 91
      604
 93
      170
310
0001404050A666C6F77556C696E657342A3A00C00003
330
35
 94
        0
1001
ACAD
1000
AcadProxyRoundTripData
1071
      534
1071
   655383
1070
     0
  0
ACAD_PROXY_OBJECT
  5
8B
330
0
100
AcDbProxyObject
 90
      499
 91
      604
 93
      170
310
0001404050A666C6F77566C696E657342A3A00C00003
330
35
 94
        0
1001
ACAD
1000
AcadProxyRoundTripData
1071
      534
1071
   655383
1070
     0
  0
ACAD_PROXY_OBJECT
  5
8C
330
0
100
AcDbProxyObject
 90
      499
 91
      604
 93
      322
310
0001408050A666C7366456E645261640000000000003C2FC000000000000F0BF0000003F20F5E5D044
330
35
 94
        0
1001
ACAD
1000
AcadProxyRoundTripData
1071
      532
1071
   655383
1070
     0
  0
ACAD_PROXY_OBJECT
  5
8D
330
0
100
AcDbProxyObject
 90
      499
 91
      604
 93
      246
310
000140C05086A6E33644D6F64650143E3BA24EB8A134A4817D3585B9D585B1
330
35
 94
        0
1001
ACAD
1000
AcadProxyRoundTripData
1071
      533
1071
   655383
1070
     0
  0
ACAD_PROXY_OBJECT
  5
8E
330
0
100
AcDbProxyObject
 90
      499
 91
      604
 93
      294
310
000140C050A6A6E33644F75747075740144F3B7F635ECB74A140A4817D41BDB1E5B1A5B995
330
35
 94
        0
1001
ACAD
1000
AcadProxyRoundTripData
1071
      533
1071
   655383
1070
     0
  0
ACAD_PROXY_OBJECT
  5
8F
330
0
100
AcDbProxyObject
 90
      499
 91
      604
 93
      306
310
000140805086C656E675065726300000000002016D002D431CEBE2361A3F0000003F20F5E5D046
330
35
 94
        0
1001
ACAD
1000
AcadProxyRoundTripData
1071
      532
1071
   655383
1070
     0
  0
ACAD_PROXY_OBJECT
  5
90
330
0
100
AcDbProxyObject
 90
      499
 91
      604
 93
      266
310
0001408050B6D61737344656E7369747942D431CEBE2361A3F0000003F20F5E5D04B
330
35
 94
        0
1001
ACAD
1000
AcadProxyRoundTripData
1071
      532
1071
   655383
1070
     0
  0
ACAD_PROXY_OBJECT
  5
91
330
0
100
AcDbProxyObject
 90
      499
 91
      604
 93
      186
310
000140805096D617373546869636BA0000003F20F5E5D07D
330
35
 94
        0
1001
ACAD
1000
AcadProxyRoundTripData
1071
      532
1071
   655383
1070
     0
  0
ACAD_PROXY_OBJECT
  5
92
330
0
100
AcDbProxyObject
 90
      499
 91
      604
 93
      230
310
000140C05086D6173735479706501436F2AB64A14CA4817D4DA195B1B1
330
35
 94
        0
1001
ACAD
1000
AcadProxyRoundTripData
1071
      533
1071
   655383
1070
     0
  0
ACAD_PROXY_OBJECT
  5
93
330
0
100
AcDbProxyObject
 90
      499
 91
      604
 93
      242
310
000140805086F667366446973744000000FC83D797C10000003F20F5E5D065
330
35
 94
        0
1001
ACAD
1000
AcadProxyRoundTripData
1071
      532
1071
   655383
1070
     0
  0
ACAD_PROXY_OBJECT
  5
94
330
0
100
AcDbProxyObject
 90
      499
 91
      604
 93
      258
310
0001408050A7072696D52616469757342D431CEBE2361A3F0000003F20F5E5D050
330
35
 94
        0
1001
ACAD
1000
AcadProxyRoundTripData
1071
      532
1071
   655383
1070
     0
  0
ACAD_PROXY_OBJECT
  5
95
330
0
100
AcDbProxyObject
 90
      499
 91
      604
 93
      194
310
0001408050A7072696D546F70526164A0000003F20F5E5D07F
330
35
 94
        0
1001
ACAD
1000
AcadProxyRoundTripData
1071
      532
1071
   655383
1070
     0
  0
ACAD_PROXY_OBJECT
  5
96
330
0
100
AcDbProxyObject
 90
      499
 91
      604
 93
      266
310
0001408050B7072696D5475626552616442D431CEBE2361A3F0000003F20F5E5D04B
330
35
 94
        0
1001
ACAD
1000
AcadProxyRoundTripData
1071
      532
1071
   655383
1070
     0
  0
ACAD_PROXY_OBJECT
  5
97
330
0
100
AcDbProxyObject
 90
      499
 91
      604
 93
      258
310
0001408050A7072696D4865696768744000000FC83D797C10000003F20F5E5D046
330
35
 94
        0
1001
ACAD
1000
AcadProxyRoundTripData
1071
      532
1071
   655383
1070
     0
  0
ACAD_PROXY_OBJECT
  5
98
330
0
100
AcDbProxyObject
 90
      499
 91
      604
 93
      250
310
000140805097072696D5374416E678182D4454FB2119C0060B51153EC8465000
330
35
 94
        0
1001
ACAD
1000
AcadProxyRoundTripData
1071
      532
1071
   655383
1070
     0
  0
ACAD_PROXY_OBJECT
  5
99
330
0
100
AcDbProxyObject
 90
      499
 91
      604
 93
      322
310
0001408050A7072696D456E64416E67060B51153EC846500182D4454FB2119C0060B51153EC8465004
330
35
 94
        0
1001
ACAD
1000
AcadProxyRoundTripData
1071
      532
1071
   655383
1070
     0
  0
ACAD_PROXY_OBJECT
  5
9A
330
0
100
AcDbProxyObject
 90
      499
 91
      604
 93
      242
310
000140805087265765374416E678182D4454FB2119C0060B51153EC8465000
330
35
 94
        0
1001
ACAD
1000
AcadProxyRoundTripData
1071
      532
1071
   655383
1070
     0
  0
ACAD_PROXY_OBJECT
  5
9B
330
0
100
AcDbProxyObject
 90
      499
 91
      604
 93
      314
310
00014080509726576456E64416E67060B51153EC846500182D4454FB2119C0060B51153EC8465021
330
35
 94
        0
1001
ACAD
1000
AcadProxyRoundTripData
1071
      532
1071
   655383
1070
     0
  0
ACAD_PROXY_OBJECT
  5
9C
330
0
100
AcDbProxyObject
 90
      499
 91
      604
 93
      194
310
0001404050C7266736655706174636865734290139C0C0003D
330
35
 94
        0
1001
ACAD
1000
AcadProxyRoundTripData
1071
      534
1071
   655383
1070
     0
  0
ACAD_PROXY_OBJECT
  5
9D
330
0
100
AcDbProxyObject
 90
      499
 91
      604
 93
      194
310
0001404050C7266736656706174636865734290139C0C0003D
330
35
 94
        0
1001
ACAD
1000
AcadProxyRoundTripData
1071
      534
1071
   655383
1070
     0
  0
ACAD_PROXY_OBJECT
  5
9E
330
0
100
AcDbProxyObject
 90
      499
 91
      604
 93
      246
310
000140C0508747562654D6F64650143E3BA24EB8A134A4817D3585B9D585B0
330
35
 94
        0
1001
ACAD
1000
AcadProxyRoundTripData
1071
      533
1071
   655383
1070
     0
  0
ACAD_PROXY_OBJECT
  5
9F
330
0
100
AcDbProxyObject
 90
      499
 91
      604
 93
      274
310
0001408050C747562654469616D6574657242D431CEBE2361A3F0000003F20F5E5D071
330
35
 94
        0
1001
ACAD
1000
AcadProxyRoundTripData
1071
      532
1071
   655383
1070
     0
  0
ACAD_PROXY_OBJECT
  5
A0
330
0
100
AcDbProxyObject
 90
      499
 91
      604
 93
      130
310
00014040509696E746572506F6C79A4056
330
35
 94
        0
1001
ACAD
1000
AcadProxyRoundTripData
1071
      534
1071
   655383
1070
     0
  0
ACAD_PROXY_OBJECT
  5
A1
330
0
100
AcDbProxyObject
 90
      499
 91
      604
 93
      162
310
0001404050D696E746572417567506F696E74A406C
330
35
 94
        0
1001
ACAD
1000
AcadProxyRoundTripData
1071
      534
1071
   655383
1070
     0
  0
ACAD_PROXY_OBJECT
  5
A2
330
0
100
AcDbProxyObject
 90
      499
 91
      604
 93
      238
310
000140C0509696E7465727472696D014365EF257ECA108A4817D09BDD1A1
330
35
 94
        0
1001
ACAD
1000
AcadProxyRoundTripData
1071
      533
1071
   655383
1070
     0
  0
ACAD_PROXY_OBJECT
  5
A3
330
0
100
AcDbProxyObject
 90
      499
 91
      604
 93
      230
310
000140C0509696E7465727479706501433136344A150A4817D51C9A5B5
330
35
 94
        0
1001
ACAD
1000
AcadProxyRoundTripData
1071
      533
1071
   655383
1070
     0
  0
ACAD_PROXY_OBJECT
  5
A4
330
0
100
AcDbProxyObject
 90
      499
 91
      604
 93
      146
310
0001404050A636F726E65727472696D4064060
330
35
 94
        0
1001
ACAD
1000
AcadProxyRoundTripData
1071
      534
1071
   655383
1070
     0
  0
ACAD_PROXY_OBJECT
  5
A5
330
0
100
AcDbProxyObject
 90
      499
 91
      604
 93
      130
310
000140405086F6673666B656570406404A
330
35
 94
        0
1001
ACAD
1000
AcadProxyRoundTripData
1071
      534
1071
   655383
1070
     0
  0
ACAD_PROXY_OBJECT
  5
A6
330
0
100
AcDbProxyObject
 90
      499
 91
      604
 93
      146
310
0001404050A70726F6A4F757470757440A40E0
330
35
 94
        0
1001
ACAD
1000
AcadProxyRoundTripData
1071
      534
1071
   655383
1070
     0
  0
ACAD_PROXY_OBJECT
  5
A7
330
0
100
AcDbProxyObject
 90
      499
 91
      604
 93
      270
310
000140C050D70726F6A446972656374696F6E014372F7AB6C0A124A4817DD92595DD
330
35
 94
        0
1001
ACAD
1000
AcadProxyRoundTripData
1071
      533
1071
   655383
1070
     0
  0
ACAD_PROXY_OBJECT
  5
A8
330
0
100
AcDbProxyObject
 90
      499
 91
      604
 93
      130
310
0001404050870726F6A4B6565704064070
330
35
 94
        0
1001
ACAD
1000
AcadProxyRoundTripData
1071
      534
1071
   655383
1070
     0
  0
ACAD_PROXY_OBJECT
  5
A9
330
0
100
AcDbProxyObject
 90
      499
 91
      604
 93
      278
310
000140C050B70726F6A53706163696E670144237164D2CA13CA4817D3DC1D1A5B585B1
330
35
 94
        0
1001
ACAD
1000
AcadProxyRoundTripData
1071
      533
1071
   655383
1070
     0
  0
ACAD_PROXY_OBJECT
  5
AA
330
0
100
AcDbProxyObject
 90
      499
 91
      604
 93
      250
310
0001408050970726F6A54617065728182D4454FB21F9BF060B51153EC87E4FFD
330
35
 94
        0
1001
ACAD
1000
AcadProxyRoundTripData
1071
      532
1071
   655383
1070
     0
  0
ACAD_PROXY_OBJECT
  5
AB
330
0
100
AcDbProxyObject
 90
      499
 91
      604
 93
      130
310
00014040508647261674B6565704064057
330
35
 94
        0
1001
ACAD
1000
AcadProxyRoundTripData
1071
      534
1071
   655383
1070
     0
  0
ACAD_PROXY_OBJECT
  5
AC
330
0
100
AcDbProxyObject
 90
      499
 91
      604
 93
      302
310
000140C050F647261674F7269656E746174696F6E0143E590243F0A138A4817D39BDC9B585B1
330
35
 94
        0
1001
ACAD
1000
AcadProxyRoundTripData
1071
      533
1071
   655383
1070
     0
  0
ACAD_PROXY_OBJECT
  5
AD
330
0
100
AcDbProxyObject
 90
      499
 91
      604
 93
      286
310
000140C050E647261675472616E736974696F6E0143A3B6A4DE0A10CA4817DCD0D85B195
330
35
 94
        0
1001
ACAD
1000
AcadProxyRoundTripData
1071
      533
1071
   655383
1070
     0
  0
ACAD_PROXY_OBJECT
  5
AE
330
0
100
AcDbProxyObject
 90
      499
 91
      604
 93
      318
310
000140C051061646A757374436F6E74696E7569747901442F746C2F778A14CA4817D4DB5BDBDD1A1
330
35
 94
        0
1001
ACAD
1000
AcadProxyRoundTripData
1071
      533
1071
   655383
1070
     0
  0
ACAD_PROXY_OBJECT
  5
AF
330
0
100
AcDbProxyObject
 90
      499
 91
      604
 93
      138
310
0001404050A61646A7573744B656570A405C
330
35
 94
        0
1001
ACAD
1000
AcadProxyRoundTripData
1071
      534
1071
   655383
1070
     0
  0
ACAD_PROXY_OBJECT
  5
B0
330
0
100
AcDbProxyObject
 90
      499
 91
      604
 93
      250
310
0001408050972756C65576964746842D431CEBE2361A3F0000003F20F5E5D048
330
35
 94
        0
1001
ACAD
1000
AcadProxyRoundTripData
1071
      532
1071
   655383
1070
     0
  0
ACAD_PROXY_OBJECT
  5
B1
330
0
100
AcDbProxyObject
 90
      499
 91
      604
 93
      274
310
0001408050C616E616C797A65447261667421D139D28615ED8FE060B51153EC8425003
330
35
 94
        0
1001
ACAD
1000
AcadProxyRoundTripData
1071
      532
1071
   655383
1070
     0
  0
ACAD_PROXY_OBJECT
  5
B2
330
0
100
AcDbProxyObject
 90
      499
 91
      604
 93
      210
310
0001404050F616E616C797A654E756D4C696E65734163FDFC00026
330
35
 94
        0
1001
ACAD
1000
AcadProxyRoundTripData
1071
      534
1071
   655383
1070
     0
  0
ACAD_PROXY_OBJECT
  5
B3
330
0
100
AcDbProxyObject
 90
      499
 91
      604
 93
      202
310
00014040512616E616C797A65526F746174654C696E6573A4040
330
35
 94
        0
1001
ACAD
1000
AcadProxyRoundTripData
1071
      534
1071
   655383
1070
     0
  0
ACAD_PROXY_OBJECT
  5
B4
330
0
100
AcDbProxyObject
 90
      499
 91
      604
 93
      210
310
00014040513616E616C797A65446973706C61794C696E6573A4066
330
35
 94
        0
1001
ACAD
1000
AcadProxyRoundTripData
1071
      534
1071
   655383
1070
     0
  0
ACAD_PROXY_OBJECT
  5
B5
330
0
100
AcDbProxyObject
 90
      499
 91
      604
 93
      258
310
00014040519616E616C797A655472616E736C7563656E7453757266616365A4043
330
35
 94
        0
1001
ACAD
1000
AcadProxyRoundTripData
1071
      534
1071
   655383
1070
     0
  0
ACAD_PROXY_OBJECT
  5
BF
330
0
100
AcDbProxyObject
 90
      499
 91
      604
 93
      706
310
0001000000009AA6A9AA4051E546875204175672032332030363A31323A303420323030372028555443290141CD4B8C4B8D0B8CC0518547565204170722032322031363A33383A3534203230303801420D4B8C4B8C8B8C4D89
330
35
330
C0
330
C1
330
C3
330
0
 94
        0
1001
ACAD
1000
AcadProxyRoundTripData
1071
      540
1071
   655383
1070
     0
  0
ACAD_PROXY_OBJECT
  5
C0
330
0
100
AcDbProxyObject
 90
      499
 91
      604
 93
       70
310
0001AAA80820000000
330
35
330
C0
330
C0
 94
        0
1001
ACAD
1000
AcadProxyRoundTripData
1071
      541
1071
   655383
1070
     0
  0
ACAD_PROXY_OBJECT
  5
C1
330
0
100
AcDbProxyObject
 90
      499
 91
      604
 93
       48
310
00010000000011
330
35
330
0
330
C2
330
0
330
0
 94
        0
1001
ACAD
1000
AcadProxyRoundTripData
1071
      542
1071
   655383
1070
     0
  0
ACAD_PROXY_OBJECT
  5
C2
330
0
100
AcDbProxyObject
 90
      499
 91
      604
 93
       40
310
000100AAAA00
330
35
330
0
 94
        0
1001
ACAD
1000
AcadProxyRoundTripData
1071
      543
1071
   655383
1070
     0
  0
ACAD_PROXY_OBJECT
  5
C4
330
0
100
AcDbProxyObject
 90
      499
 91
      604
 93
      124
310
00010142905350D3D39114D414D69051
330
35
 94
        0
1001
ACAD
1000
AcadProxyRoundTripData
1071
      510
1071
   655383
1070
     0
  0
ACAD_PROXY_OBJECT
  5
C5
330
0
100
AcDbProxyObject
 90
      499
 91
      604
 93
      124
310
000101429053549553115353D1115011
330
35
 94
        0
1001
ACAD
1000
AcadProxyRoundTripData
1071
      510
1071
   655383
1070
     0
  0
ACAD_PROXY_OBJECT
  5
C6
330
0
100
AcDbProxyObject
 90
      499
 91
      604
 93
      108
310
00010142105354D2D353D1115013
330
35
 94
        0
1001
ACAD
1000
AcadProxyRoundTripData
1071
      510
1071
   655383
1070
     0
  0
ACAD_PROXY_OBJECT
  5
C7
330
0
100
AcDbProxyObject
 90
      499
 91
      604
 93
      140
310
000101435053511253511254D41353D11160
330
35
 94
        0
1001
ACAD
1000
AcadProxyRoundTripData
1071
      510
1071
   655383
1070
     0
  0
ACAD_PROXY_OBJECT
  5
C8
330
0
100
AcDbProxyObject
 90
      499
 91
      604
 93
      180
310
00010142905354D2D05391D513D300000000000001040C
330
35
 94
        0
1001
ACAD
1000
AcadProxyRoundTripData
1071
      509
1071
   655383
1070
     0
  0
ACAD_PROXY_OBJECT
  5
C9
330
0
100
AcDbProxyObject
 90
      499
 91
      604
 93
      164
310
00010142505354D2D4D516531140505434F4E542AB
330
35
 94
        0
1001
ACAD
1000
AcadProxyRoundTripData
1071
      531
1071
   655383
1070
     0
  0
ACAD_PROXY_OBJECT
  5
CA
330
0
100
AcDbProxyObject
 90
      499
 91
      604
 93
      108
310
00010142105350D3511112535016
330
35
 94
        0
1001
ACAD
1000
AcadProxyRoundTripData
1071
      510
1071
   655383
1070
     0
  0
ACAD_PROXY_OBJECT
  5
CB
330
0
100
AcDbProxyObject
 90
      499
 91
      604
 93
      108
310
00010142105350D3D35414D59016
330
35
 94
        0
1001
ACAD
1000
AcadProxyRoundTripData
1071
      510
1071
   655383
1070
     0
  0
ACAD_PROXY_OBJECT
  5
CC
330
0
100
AcDbProxyObject
 90
      499
 91
      604
 93
      164
310
0001014290535410549514D4119600504CADFB0C2B
330
35
 94
        0
1001
ACAD
1000
AcadProxyRoundTripData
1071
      531
1071
   655383
1070
     0
  0
ACAD_PROXY_OBJECT
  5
CD
330
0
100
AcDbProxyObject
 90
      499
 91
      604
 93
      220
310
0001014350535513D3D31093D11654119600508C2B0D9CEDEC3DEA82
330
35
 94
        0
1001
ACAD
1000
AcadProxyRoundTripData
1071
      531
1071
   655383
1070
     0
  0
ACAD_PROXY_OBJECT
  5
CE
330
0
100
AcDbProxyObject
 90
      499
 91
      604
 93
      116
310
000101425053511254D410D3D39011
330
35
 94
        0
1001
ACAD
1000
AcadProxyRoundTripData
1071
      510
1071
   655383
1070
     0
  0
ACAD_PROXY_OBJECT
  5
CF
330
0
100
AcDbProxyObject
 90
      499
 91
      604
 93
      108
310
00010142105350D3D39114D41016
330
35
 94
        0
1001
ACAD
1000
AcadProxyRoundTripData
1071
      510
1071
   655383
1070
     0
  0
ACAD_PROXY_OBJECT
  5
D0
330
0
100
AcDbProxyObject
 90
      499
 91
      604
 93
      124
310
0001014290535490511114D414D6919C
330
35
 94
        0
1001
ACAD
1000
AcadProxyRoundTripData
1071
      510
1071
   655383
1070
     0
  0
ACAD_PROXY_OBJECT
  5
D2
330
0
100
AcDbProxyObject
 90
      499
 91
      604
 93
     3100
310
0001419078050A544852555F4452494C4C0142D09312539117D1149253130050A544852555F43424F52450142D09312539117D0D093D4914050A544852555F4353494E4B0142D09312539117D0D4D25392D0641E01449EC94958C80949505351125048151214955F4051C7B252563202525414D4449412058202525414D444
310
55020444545507D014E5EC94958C80949505351125048151214955F57141ED0D093D49148094958C80949505350D112504816080949505350D091115408111151541F405437B252563202525414D4449412058202525414D44455020444545507D5C507B43424F524520252563202525414D434449412058202525414D4342
310
44455020444545507D014DDEC94958C80949505351125048151214955F57141ED0D4D25392C8094958C80949505350D112504816080949505350D4D05391C949591F405417B252563202525414D4449412058202525414D44455020444545507D5C507B4353494E4B20252563202525414D434449412058202525414D43534
310
14E472525647D9
330
35
 94
        0
1001
ACAD
1000
AcadProxyRoundTripData
1071
      545
1071
   655383
1070
     0
  0
ACAD_PROXY_OBJECT
  5
D4
330
0
100
AcDbProxyObject
 90
      499
 91
      604
 93
      140
310
00010143105354D554141490D3D313D49A61
330
35
 94
        0
1001
ACAD
1000
AcadProxyRoundTripData
1071
      510
1071
   655383
1070
     0
  0
ACAD_PROXY_OBJECT
  5
D9
330
0
100
AcDbProxyObject
 90
      499
 91
      604
 93
      132
310
00010142D05050555513D4D3D315915013
330
35
 94
        0
1001
ACAD
1000
AcadProxyRoundTripData
1071
      510
1071
   655383
1070
     0
  0
ACAD_PROXY_OBJECT
  5
DA
330
0
100
AcDbProxyObject
 90
      499
 91
      604
 93
      156
310
00010143905050555513D054D4D1535093115015
330
35
 94
        0
1001
ACAD
1000
AcadProxyRoundTripData
1071
      510
1071
   655383
1070
     0
  0
ACAD_PROXY_OBJECT
  5
DB
330
0
100
AcDbProxyObject
 90
      499
 91
      604
 93
      148
310
00010143505055925155D49154D513D4915015
330
35
 94
        0
1001
ACAD
1000
AcadProxyRoundTripData
1071
      510
1071
   655383
1070
     0
  0
ACAD_PROXY_OBJECT
  5
DC
330
0
100
AcDbProxyObject
 90
      499
 91
      604
 93
      124
310
00010142D050525394D15495105094E5
330
35
 94
        0
1001
ACAD
1000
AcadProxyRoundTripData
1071
      510
1071
   655383
1070
     0
  0
ACAD_PROXY_OBJECT
  5
DD
330
0
100
AcDbProxyObject
 90
      499
 91
      604
 93
      148
310
00010143505054D0D153915554111055115015
330
35
 94
        0
1001
ACAD
1000
AcadProxyRoundTripData
1071
      510
1071
   655383
1070
     0
  0
ACAD_PROXY_OBJECT
  5
DE
330
0
100
AcDbProxyObject
 90
      499
 91
      604
 93
      172
310
00010143105054D5509054D4D3541196005035355420
330
35
 94
        0
1001
ACAD
1000
AcadProxyRoundTripData
1071
      531
1071
   655383
1070
     0
  0
ACAD_PROXY_OBJECT
  5
DF
330
0
100
AcDbProxyObject
 90
      499
 91
      604
 93
      172
310
00010142905054D0D15391541196005055343454E450
330
35
 94
        0
1001
ACAD
1000
AcadProxyRoundTripData
1071
      531
1071
   655383
1070
     0
  0
ACAD_PROXY_OBJECT
  5
E0
330
0
100
AcDbProxyObject
 90
      499
 91
      604
 93
      148
310
00010143505350555513D313D0D2D4D0D39010
330
35
 94
        0
1001
ACAD
1000
AcadProxyRoundTripData
1071
      510
1071
   655383
1070
     0
  0
ACAD_PROXY_OBJECT
  5
E5
330
0
100
AcDbProxyObject
 90
      499
 91
      604
 93
       32
310
00010000E7
330
35
340
E2
330
E7
330
E2
 94
        0
1001
ACAD
1000
AcadProxyRoundTripData
1071
      551
1071
   655383
1070
     0
  0
ACAD_PROXY_OBJECT
  5
E6
330
0
100
AcDbProxyObject
 90
      499
 91
      604
 93
       18
310
000188
330
35
 94
        0
1001
ACAD
1000
AcadProxyRoundTripData
1071
      552
1071
   655383
1070
     0
  0
ACAD_PROXY_OBJECT
  5
E7
330
0
100
AcDbProxyObject
 90
      499
 91
      604
 93
      175
310
000101434C0C0C4B4C0C0D0813508D0D149050055400
330
35
330
E5
330
E6
 94
        0
1001
ACAD
1000
AcadProxyRoundTripData
1071
      553
1071
   655383
1070
     0
  0
ACAD_PROXY_OBJECT
  5
E8
330
0
100
AcDbProxyObject
 90
      499
 91
      604
 93
       40
310
000100AAAA01
330
35
330
E7
 94
        0
1001
ACAD
1000
AcadProxyRoundTripData
1071
      554
1071
   655383
1070
     0
  0
ACAD_PROXY_OBJECT
  5
E9
330
0
100
AcDbProxyObject
 90
      499
 91
      604
 93
      108
310
000190140A000000000000AAAAA0
330
35
330
EA
330
EA
330
EA
330
EA
330
EA
330
0
 94
        0
1001
ACAD
1000
AcadProxyRoundTripData
1071
      555
1071
   655383
1070
     0
  0
ACAD_PROXY_OBJECT
  5
EA
330
0
100
AcDbProxyObject
 90
      499
 91
      604
 93
       51
310
00010000AAAA84
330
35
330
E9
330
E7
 94
        0
1001
ACAD
1000
AcadProxyRoundTripData
1071
      556
1071
   655383
1070
     0
  0
ACAD_PROXY_OBJECT
  5
F0
330
0
100
AcDbProxyObject
 90
      499
 91
      604
 93
      148
310
00010142105350D55494D51100504414E53490
330
35
 94
        0
1001
ACAD
1000
AcadProxyRoundTripData
1071
      531
1071
   655383
1070
     0
  0
ACAD_PROXY_OBJECT
  5
15C
330
0
100
AcDbProxyObject
 90
      499
 91
      604
 93
       46
310
000140501404
330
35
330
0
330
21FD
 94
        0
1001
ACAD
1000
AcadProxyRoundTripData
1071
      580
1071
   655383
1070
     0
  0
ACAD_PROXY_OBJECT
  5
2201
330
0
100
AcDbProxyObject
 90
      499
 91
      604
 93
      415
310
0011435058D499931A5B9954DD185D1943C6D102DB1C239201C0E3C8EACC64D8811BD406FBD931CE480781C791D199CB82040001
330
35
330
0
330
1BD3
 94
        0
1001
ACAD
1000
AcadProxyRoundTripData
1071
      590
1071
   655383
1070
     0
  0
ACAD_PROXY_OBJECT
  5
2223
330
0
100
AcDbProxyObject
 90
      499
 91
      604
 93
      259
310
0011441058D49990DA5C98D05C98D4DD185D195552D30305A88A9F642328000013
330
35
330
0
330
19C0
 94
        0
1001
ACAD
1000
AcadProxyRoundTripData
1071
      603
1071
   655383
1070
     0
  0
ACAD_PROXY_OBJECT
  5
2227
330
0
100
AcDbProxyObject
 90
      499
 91
      604
 93
      415
310
0011435058D499931A5B9954DD185D1943D6D102DB1E438201E4F47BEA42AAE2811E968836D8DA0D8807A3D1EFA90AAB8A040001
330
35
330
0
330
0
 94
        0
1001
ACAD
1000
AcadProxyRoundTripData
1071
      590
1071
   655383
1070
     0
  0
ACAD_PROXY_OBJECT
  5
222B
330
0
100
AcDbProxyObject
 90
      499
 91
      604
 93
      415
310
0011435058D499931A5B9954DD185D1944E606E49784035A0049771756D324E0811689E5C1AA9AED88048160B94904F382040001
330
35
330
0
330
19BD
 94
        0
1001
ACAD
1000
AcadProxyRoundTripData
1071
      590
1071
   655383
1070
     0
  0
ACAD_PROXY_OBJECT
  5
222F
330
0
100
AcDbProxyObject
 90
      499
 91
      604
 93
      415
310
0011435058D499931A5B9954DD185D1943D6D102DB19C39201C0E3C8EACC64D8810F5B440B6C670E4807038F23AB341322040001
330
35
330
0
330
19E4
 94
        0
1001
ACAD
1000
AcadProxyRoundTripData
1071
      590
1071
   655383
1070
     0
  0
ACAD_PROXY_OBJECT
  5
2233
330
0
100
AcDbProxyObject
 90
      499
 91
      604
 93
      415
310
0011435058D499931A5B9954DD185D1946141D2235ABC3A20055653C8DE10AE88118507488D6AF0E8802E72E8BC9184BA2040001
330
35
330
0
330
0
 94
        0
1001
ACAD
1000
AcadProxyRoundTripData
1071
      590
1071
   655383
1070
     0
  0
ACAD_PROXY_OBJECT
  5
223B
330
0
100
AcDbProxyObject
 90
      499
 91
      604
 93
      415
310
0011435058D499931A5B9954DD185D1942253F693984AB9A01EC3E58AFC3CCDC810894FDA4E612AE680781C791D199CB82040001
330
35
330
0
330
21A2
 94
        0
1001
ACAD
1000
AcadProxyRoundTripData
1071
      590
1071
   655383
1070
     0
  0
ACAD_PROXY_OBJECT
  5
223D
330
0
100
AcDbProxyObject
 90
      499
 91
      604
 93
      415
310
0011435058D499931A5B9954DD185D1943C6D102DB1C239201C0E3C8EACC64D8811BD406FBD931CE480781C791D199CB82040001
330
35
330
0
330
1BD3
 94
        0
1001
ACAD
1000
AcadProxyRoundTripData
1071
      590
1071
   655383
1070
     0
  0
ACAD_PROXY_OBJECT
  5
2241
330
0
100
AcDbProxyObject
 90
      499
 91
      604
 93
      415
310
0011435058D499931A5B9954DD185D194006D902DB1A43AA015DA8E1F89F26E481001B640B6C690EA802337054B74E039A040000
330
35
330
0
330
1A64
 94
        0
1001
ACAD
1000
AcadProxyRoundTripData
1071
      590
1071
   655383
1070
     0
  0
DICTIONARY
  5
2C
102
{ACAD_REACTORS
330
2B
102
}
330
2B
100
AcDbDictionary
  3
DWGSETTINGS
350
2D
  3
TRANSSETTINGS
350
31
  0
ACAD_PROXY_OBJECT
  5
F3
102
{ACAD_REACTORS
330
2B
102
}
330
2B
100
AcDbProxyObject
 90
      499
 91
      604
 93
    12922
310
41103491013041105357CC10747A404C504414D5F314391E9013241105357CC90547A404CD04414D5F334190F9013441105357CD10343E404D504414D5F3540D0F9013641105357CD90247A404DD04414D5F374110F9013841105357CE10143E404E504414D5F397F641102324141505357CC4C10747A408D10505414D5F31
310
3140D0F902495041505357CC4C90747902408C13905414D5F304E41D1E902314E41505357CC5390E47A408C93905414D5F324E4151E902334E41505357CCD390643E408D13905414D5F344E40D0F902354E41505357CD5390343E408D93905414D5F364E4091E902374E41505357CDD390443E408E13905414D5F384E4050F
310
902394E41505357CE539FD90440CC9053906414D5F31304E41D1E90334414E41905357CC4C5390343E40D25413906414D5F31324E41D1E409044B4C494E41505357D0D310143D094112539193D08414D5F50415245464110F42D055241484D3541905357D093D4907479094115925155D08414D5F56494557534050F42D064
310
24548494E4441905357D253959FD90D415514905253105414D5F545240D0F4250348494441905357D2125110743D0940D59254D06414D5F56495341D1E4250650415244494D42505357D4105491125350343D0941949151911253509414D5F52454644494D4110F42553411092139590139CFFFFFFFF415092139594D06424
310
548494E44CFFFFFFFF411093D48C9055241484D354050F411093D48CD055241484D354091E411093D48D5055241484D35CFFFFFFFF4110D0530C90134CFFFFFFFF4110D0530CD01344091E4110D0530D5013441D1E4110D0530DD01344793C4110D1539390137CFFFFFFFF4110D15395D0137CFFFFFFFF4110D312539044B4
310
C494ECFFFFFFFF4110D3D38C50130CFFFFFFFF4110D3D38C90131CFFFFFFFF4110D3D38CD0132CFFFFFFFF4110D3D38D10132CFFFFFFFF411111551050134CFFFFFFFF4111125051D0135CFFFFFFFF411112531250135CFFFFFFFF411112535410650415244494DCFFFFFFFF411112535490652454644494DCFFFFFFFF4111
310
91535390138CFFFFFFFF4151915354139013840CFFFFFFFF4151915354D41023441CFFFFFFFF4151915354D5102344140D0F41519153559390132CFFFFFFFF4151915355951013240D0F4112105510D0138CFFFFFFFF411212511390133CFFFFFFFF4112125115D0133CFFFFFFFF411213125390134CFFFFFFFF411213D0D3
310
90137CFFFFFFFF411213D0D5D0137CFFFFFFFF4112539193D04494E464FCFFFFFFFF411311505110135CFFFFFFFF419397D0921395902394ECFFFFFFFF419397D0D3D38C502304ECFFFFFFFF419397D0D3D38C902314ECFFFFFFFF419397D0D3D38CD02324ECFFFFFFFF419397D0D3D38D102324ECFFFFFFFF419397D0D153
310
93902374ECFFFFFFFF419397D0D15395D02374ECFFFFFFFF419397D1125312502354ECFFFFFFFF419397D2105510D02384ECFFFFFFFF419397D2125113902334ECFFFFFFFF419397D2125115D02334ECFFFFFFFF419397D3115051102354ECFFFFFFFF419397D391D25410349504ECFFFFFFFF419397D412105390334414EC
310
FFFFFFFF419397D510D3D3902304ECFFFFFFFF419397D5121312502344ECFFFFFFFF419397D5131153902304ECFFFFFFFF419397D594131250332414ECFFFFFFFF411391D2541024950CFFFFFFFF411410530C9055241484D354050F411410530CD055241484D354091E411410530D5055241484D35CFFFFFFFF4114121053
310
9023441CFFFFFFFF411413D4D390135CFFFFFFFF411490D1D390137CFFFFFFFF411490D1D5D0137CFFFFFFFF4114D09492D013441D1E4114D150D510134CFFFFFFFF4114D6508CD01354091E411354D653501354091E411510D3D390130CFFFFFFFF411512131250134CFFFFFFFF411512550C9055241484D354050F411512
310
550CD055241484D354091E411512550D5055241484D35CFFFFFFFF411513115390130CFFFFFFFF415514905253105545241494CCFFFFFFFF411514931250134CFFFFFFFF411516150C5013640D0F411516150C9013640D0F411516150CD0136CFFFFFFFF411516150D5013641D1E411516150DD01364793C4115925155D045
310
6494557CFFFFFFFF4115915112103484944CFFFFFFFF4115915115903564953CFFFFFFFF41159413125023241CFFFFFFFF411692569050134CFFFFFFFFAA9FD404FE4290143D024790343D0443D054790643D074790E4791E4F1FD80
340
16
340
16
340
16
340
54
340
16
340
16
340
16
340
56
340
16
340
16
340
56
340
55
340
16
340
16
340
16
340
16
340
54
340
16
340
16
340
16
340
56
340
16
340
16
340
56
340
55
340
16
340
F7
340
16
340
16
340
16
340
16
340
16
340
54
340
16
340
16
340
16
340
15
340
15
340
15
340
15
340
15
340
15
340
15
340
15
340
15
340
221E
340
15
340
15
340
15
340
15
340
15
340
15
340
15
340
15
340
15
340
15
340
15
340
15
340
15
340
16
340
15
340
15
340
15
340
15
340
221F
340
15
340
15
340
221E
340
15
340
15
340
15
340
15
340
15
340
15
340
15
340
15
340
221E
340
15
340
15
340
15
340
221F
340
15
340
15
340
15
340
15
340
15
340
221F
340
15
340
55
340
15
340
15
340
15
340
15
340
15
340
15
340
221E
340
15
340
15
340
15
340
15
340
15
340
15
340
221F
340
15
340
15
340
15
340
15
340
15
340
15
340
15
340
15
340
15
340
15
340
15
340
15
340
15
340
15
340
55
340
2220
 94
        0
1001
ACAD
1000
AcadProxyRoundTripData
1071
      560
1071
   655383
1070
     0
  0
ACAD_PROXY_OBJECT
  5
172
102
{ACAD_REACTORS
330
16D
102
}
330
16D
100
AcDbProxyObject
 90
      499
 91
      604
 93
      253
310
43D1444494D454E53494F4E2C414D44545F2A5F44494D404A9012A404A9012A8
 94
        0
1001
ACAD
1000
AcadProxyRoundTripData
1071
      581
1071
   655383
1070
     0
  0
ACAD_PROXY_OBJECT
  5
171
102
{ACAD_REACTORS
330
16D
102
}
330
16D
100
AcDbProxyObject
 90
      499
 91
      604
 93
      181
310
43D012A42D05357D191504B505357CA9012A404A9012AC
 94
        0
1001
ACAD
1000
AcadProxyRoundTripData
1071
      581
1071
   655383
1070
     0
  0
ACAD_PROXY_OBJECT
  5
16E
102
{ACAD_REACTORS
330
16D
102
}
330
16D
100
AcDbProxyObject
 90
      499
 91
      604
 93
      133
310
43D054841544348404A9012A404A9012A8
 94
        0
1001
ACAD
1000
AcadProxyRoundTripData
1071
      581
1071
   655383
1070
     0
  0
ACAD_PROXY_OBJECT
  5
16F
102
{ACAD_REACTORS
330
16D
102
}
330
16D
100
AcDbProxyObject
 90
      499
 91
      604
 93
      549
310
43D044C494E4549CE0B0E138B0A8B4E0B0A8B4E138B105357CE0B105357CE138B0A8B505357CE0B0A8B505357CE139012A404A910494E534552542C535444504152543244C
 94
        0
1001
ACAD
1000
AcadProxyRoundTripData
1071
      581
1071
   655383
1070
     0
  0
ACAD_PROXY_OBJECT
  5
173
102
{ACAD_REACTORS
330
16D
102
}
330
16D
100
AcDbProxyObject
 90
      499
 91
      604
 93
      181
310
43D0341524341105357CD5012A404C906494E534552541
 94
        0
1001
ACAD
1000
AcadProxyRoundTripData
1071
      581
1071
   655383
1070
     0
  0
ACAD_PROXY_OBJECT
  5
170
102
{ACAD_REACTORS
330
16D
102
}
330
16D
100
AcDbProxyObject
 90
      499
 91
      604
 93
     1053
310
43D7841434D46434652414D452C41434D444154554D5441524745542C41434D444154554D49442C41434D57454C4453594D2C41434D5355524653594D2C41434D4645415449442C41434D504152545245462C41434D42414C4C4F4F4E2C414D44544544474553594D2C414D47534352455743414C435441424C45404A9012A
310
404A9012A9
 94
        0
1001
ACAD
1000
AcadProxyRoundTripData
1071
      581
1071
   655383
1070
     0
  0
LAYER_INDEX
  5
22D9
102
{ACAD_REACTORS
330
22D8
102
}
330
22D8
100
AcDbIndex
 40
2457218.691541018
100
AcDbLayerIndex
  8
0
360
22DA
 90
        0
  8
最小図面
360
22DB
 90
       67
  8
枠
360
22DC
 90
        5
  8
DEFPOINTS
360
22DD
 90
        0
  8
5
360
22DE
 90
       40
  8
文字
360
22E2
 90
        0
  0
ACAD_PROXY_OBJECT
  5
21FD
102
{ACAD_REACTORS
330
21FC
102
}
330
21FC
100
AcDbProxyObject
 90
      499
 91
      604
 93
      495
310
425010040CA904C5032A413240CA904CD032A413440CA904D5032A413640CA904DD032A413840CA904E5514322E30C0C4D605F13508D0D14901D5012D407
350
21FF
350
2222
350
2226
350
222A
350
222E
350
2232
350
2237
350
223A
350
2240
340
1F
340
EE
330
0
 94
        0
1001
ACAD
1000
AcadProxyRoundTripData
1071
      585
1071
   655383
1070
     0
  0
ACAD_PROXY_OBJECT
  5
EE
102
{ACAD_REACTORS
330
ED
102
}
330
ED
100
AcDbProxyObject
 90
      499
 91
      604
 93
      139
310
057356C1D51406406AA8FFFFFFFF0A8A4054
330
1F
330
0
330
0
 94
        0
1001
ACAD
1000
AcadProxyRoundTripData
1071
      558
1071
   655383
1070
     0
  0
ACAD_PROXY_OBJECT
  5
2231
102
{ACAD_REACTORS
330
ED
102
}
330
ED
100
AcDbProxyObject
 90
      499
 91
      604
 93
     1213
310
057356C1D514390C411390535150190190141511154D0D49019019014214D5105391105491101901901421350551154925053101901901411393D511501901901419591539113D490190190141911154D0D48C9019019014254D51053911054910C9019019014253505511549250530C90190190141135054D4D0190190141
310
54149250D150190190140D11253501901901901A3FFFFFFFC3
330
2232
330
0
 94
        0
1001
ACAD
1000
AcadProxyRoundTripData
1071
      586
1071
   655383
1070
     0
  0
ACAD_PROXY_OBJECT
  5
2236
102
{ACAD_REACTORS
330
ED
102
}
330
ED
100
AcDbProxyObject
 90
      499
 91
      604
 93
     1213
310
057356C1D5143D0C411390535150190190141511154D0D49019019014214D5105391105491101901901421350551154925053101901901411393D511501901901419591539113D490190190141911154D0D48C9019019014254D51053911054910C9019019014253505511549250530C90190190141135054D4D0190190141
310
54149250D150190190140D11253501901901901A3FFFFFFFC3
330
2237
330
0
 94
        0
1001
ACAD
1000
AcadProxyRoundTripData
1071
      586
1071
   655383
1070
     0
  0
ACAD_PROXY_OBJECT
  5
2239
102
{ACAD_REACTORS
330
ED
102
}
330
ED
100
AcDbProxyObject
 90
      499
 91
      604
 93
     1213
310
057356C1D514410C411390535150190190141511154D0D49019019014214D5105391105491101901901421350551154925053101901901411393D511501901901419591539113D490190190141911154D0D48C9019019014254D51053911054910C9019019014253505511549250530C90190190141135054D4D0190190141
310
54149250D150190190140D11253501901901901A3FFFFFFFC3
330
223A
330
0
 94
        0
1001
ACAD
1000
AcadProxyRoundTripData
1071
      586
1071
   655383
1070
     0
  0
ACAD_PROXY_OBJECT
  5
223F
102
{ACAD_REACTORS
330
ED
102
}
330
ED
100
AcDbProxyObject
 90
      499
 91
      604
 93
     1213
310
057356C1D514450C411390535150190190141511154D0D49019019014214D5105391105491101901901421350551154925053101901901411393D511501901901419591539113D490190190141911154D0D48C9019019014254D51053911054910C9019019014253505511549250530C90190190141135054D4D0190190141
310
54149250D150190190140D11253501901901901A3FFFFFFFC3
330
2240
330
0
 94
        0
1001
ACAD
1000
AcadProxyRoundTripData
1071
      586
1071
   655383
1070
     0
  0
ACAD_PROXY_OBJECT
  5
21FE
102
{ACAD_REACTORS
330
ED
102
}
330
ED
100
AcDbProxyObject
 90
      499
 91
      604
 93
     1213
310
057356C1D514250C411390535150190190141511154D0D49019019014214D5105391105491101901901421350551154925053101901901411393D511501901901419591539113D490190190141911154D0D48C9019019014254D51053911054910C9019019014253505511549250530C90190190141135054D4D0190190141
310
54149250D150190190140D11253501901901901A3FFFFFFFC4
330
21FF
330
0
 94
        0
1001
ACAD
1000
AcadProxyRoundTripData
1071
      586
1071
   655383
1070
     0
  0
ACAD_PROXY_OBJECT
  5
2221
102
{ACAD_REACTORS
330
ED
102
}
330
ED
100
AcDbProxyObject
 90
      499
 91
      604
 93
     1213
310
057356C1D514290C411390535150190190141511154D0D49019019014214D5105391105491101901901421350551154925053101901901411393D511501901901419591539113D490190190141911154D0D48C9019019014254D51053911054910C9019019014253505511549250530C90190190141135054D4D0190190141
310
54149250D150190190140D11253501901901901A3FFFFFFFC3
330
2222
330
0
 94
        0
1001
ACAD
1000
AcadProxyRoundTripData
1071
      586
1071
   655383
1070
     0
  0
ACAD_PROXY_OBJECT
  5
2225
102
{ACAD_REACTORS
330
ED
102
}
330
ED
100
AcDbProxyObject
 90
      499
 91
      604
 93
     1213
310
057356C1D5142D0C411390535150190190141511154D0D49019019014214D5105391105491101901901421350551154925053101901901411393D511501901901419591539113D490190190141911154D0D48C9019019014254D51053911054910C9019019014253505511549250530C90190190141135054D4D0190190141
310
54149250D150190190140D11253501901901901A3FFFFFFFC3
330
2226
330
0
 94
        0
1001
ACAD
1000
AcadProxyRoundTripData
1071
      586
1071
   655383
1070
     0
  0
ACAD_PROXY_OBJECT
  5
2229
102
{ACAD_REACTORS
330
ED
102
}
330
ED
100
AcDbProxyObject
 90
      499
 91
      604
 93
     1213
310
057356C1D514310C411390535150190190141511154D0D49019019014214D5105391105491101901901421350551154925053101901901411393D511501901901419591539113D490190190141911154D0D48C9019019014254D51053911054910C9019019014253505511549250530C90190190141135054D4D0190190141
310
54149250D150190190140D11253501901901901A3FFFFFFFC3
330
222A
330
0
 94
        0
1001
ACAD
1000
AcadProxyRoundTripData
1071
      586
1071
   655383
1070
     0
  0
ACAD_PROXY_OBJECT
  5
222D
102
{ACAD_REACTORS
330
ED
102
}
330
ED
100
AcDbProxyObject
 90
      499
 91
      604
 93
     1213
310
057356C1D514350C411390535150190190141511154D0D49019019014214D5105391105491101901901421350551154925053101901901411393D511501901901419591539113D490190190141911154D0D48C9019019014254D51053911054910C9019019014253505511549250530C90190190141135054D4D0190190141
310
54149250D150190190140D11253501901901901A3FFFFFFFC3
330
222E
330
0
 94
        0
1001
ACAD
1000
AcadProxyRoundTripData
1071
      586
1071
   655383
1070
     0
  0
ACAD_PROXY_OBJECT
  5
2205
102
{ACAD_REACTORS
330
F1
102
}
330
F1
100
AcDbProxyObject
 90
      499
 91
      604
 93
     1991
310
5440000000000000840D04414E5349405901409020000000000000210322086A1C82C6DAA6EAE4CCA8CAF0E8A6E8C88120284A0B1B6A321A329BA3220480A1A82C6DAAECAD8C8D2DCCEA6E8C8812028420B1B6A4B229BA3220480A1682C6DA88C2E8EADAA6E8C88120284A0B1B6A127A6A9BA3220480A2082DAC8E888CAE8C
310
2D2D8A6F2DAA6E8C88120288A0B6B23A29B2B1BA34B7B729BCB6A9BA3220480A2282DAC8E886CADCE8CAE498D2DCCAA6E8C88120288A0B6B23A2A343932B0B22634B732A9BA3220480A1682C682DACE98C2F2A6E8C88120285A0B1A0B6B3A234B6A9BA3220480A1A82C682DACEA8D2E8D8CAA6E8C88120280A05
340
2206
360
2207
360
2208
360
2209
360
220A
360
220B
360
220C
360
220D
360
220E
360
220F
360
2210
360
2215
360
2216
360
221D
 94
        0
1001
ACAD
1000
AcadProxyRoundTripData
1071
      593
1071
   655383
1070
     0
  0
ACAD_PROXY_OBJECT
  5
F2
102
{ACAD_REACTORS
330
F1
102
}
330
F1
100
AcDbProxyObject
 90
      499
 91
      604
 93
     2093
310
5440000000000000C40D0349534F40590140902000000000000031032228721682DAC8E88AC8CECAA6E8C8812028720B1B6A9BAB9332A32BC3A29BA3220480A1282C6DA8C868CA6E8C88120286A0B1B6ABB2B63234B733A9BA3220480A1082C6DA92C8A6E8C88120285A0B1B6A230BA3AB6A9BA3220480A1282C6DA849E9AA
310
6E8C8812028820B6B23A2232BA30B4B629BCB6A9BA3220480A2282DAC8E8A6CAC6E8D2DEDCA6F2DAA6E8C88120288A0B6B23A21B2B73A32B92634B732A9BA3220480A2282DAC8E8A8D0E4CAC2C898D2DCCAA6E8C88120285A0B1A0B6B3A630BCA9BA3220480A1682C682DACE88D2DAA6E8C88120286A0B1A0B6B3AA34BA363
310
2A9BA3220480C814
340
FD
360
FE
360
FF
360
100
360
101
360
102
360
103
360
104
360
105
360
106
360
107
360
108
360
10F
360
110
360
11C
 94
        0
1001
ACAD
1000
AcadProxyRoundTripData
1071
      559
1071
   655383
1070
     0
  0
ACAD_PROXY_OBJECT
  5
2D
102
{ACAD_REACTORS
330
2C
102
}
330
2C
100
AcDbProxyObject
 90
      499
 91
      604
 93
     2396
310
4050B44574753455454494E4753A1286829C8E82A4A482B282A106660F8686AF86C608321A2A720A723A0A849A1ABE1C983E18999AA0C868A9C889282940000000000000488083A1A2A72224A0A9A0A8418983E19183E199820E868A9C8892A6A894000000000000010808321A2A72622A7250000000000000122020C868A9
310
C9E8C8C940000000000000488084A1A624A720A92920ACA0A8418983E19183E19982108698929C8AA8B2A082A0AB098929C8A84A22BA3AAA9A1A0A622A50A0E9882A6A89E849482A02608426A0A5A2AB24A2ABA7E8120CA0A68682988A0C00800010652455649534941501304154D0D0531150540CC4E8C50954494D455354
310
414D504A055029F627226734141D5915494D253D3905414C4D4B8C0C1107B44574753455454494E4753454E447D5
 94
        0
1001
ACAD
1000
AcadProxyRoundTripData
1071
      503
1071
   655383
1070
     0
  0
ACAD_PROXY_OBJECT
  5
31
102
{ACAD_REACTORS
330
2C
102
}
330
2C
100
AcDbProxyObject
 90
      499
 91
      604
 93
      852
310
4050D5452414E5353455454494E4753A2488A482AE929C8EA8A4829CA69882A8929E9C0C00800050D4F524947494E414C4C595F4F4E0600400028529A7AAA921A2A620A723A0A81A52827212AAA0A48AA68AA4AC8A0C0080001107B44574753455454494E4753454E447D0
 94
        0
1001
ACAD
1000
AcadProxyRoundTripData
1071
      503
1071
   655383
1070
     0
  0
IDBUFFER
  5
22DA
330
0
100
AcDbIdBuffer
  0
IDBUFFER
  5
22DB
330
0
100
AcDbIdBuffer
330
26AD
330
26AE
330
26AF
330
26B0
330
26B1
330
26B2
330
26B3
330
26B4
330
26B5
330
26B6
330
26B7
330
273A
330
1991
330
1994
330
199C
330
19A9
330
19AA
330
19AC
330
19BD
330
19BE
330
19BF
330
19C0
330
19C2
330
19C3
330
19C5
330
19C6
330
19C7
330
19C8
330
19CA
330
19CB
330
19CC
330
19D4
330
19D7
330
19DA
330
19E4
330
1A06
330
1A4E
330
26AA
330
2580
330
257F
330
2559
330
2507
330
23DC
330
1BC1
330
1BC2
330
1BC3
330
1BC4
330
1BC5
330
1BC6
330
1BC7
330
1BC8
330
1BC9
330
1BCC
330
1BCD
330
1BCE
330
1BD1
330
1BD2
330
26AC
330
23DB
330
22C2
330
22C5
330
22C6
330
22C9
330
22CA
330
22CB
330
22CE
330
22D0
  0
IDBUFFER
  5
22DC
330
0
100
AcDbIdBuffer
330
2599
330
25A6
330
25BC
330
25ED
330
2603
  0
IDBUFFER
  5
22DD
330
0
100
AcDbIdBuffer
  0
IDBUFFER
  5
22DE
330
0
100
AcDbIdBuffer
330
3DD
330
3DE
330
3DF
330
3E0
330
3E1
330
3E2
330
401
330
40C
330
40D
330
514
330
9B0
330
9BB
330
9BC
330
F09
330
F0A
330
F0B
330
F0C
330
F0D
330
F46
330
F50
330
F51
330
103E
330
16F8
330
16F9
330
16FA
330
16FB
330
16FC
330
1712
330
171F
330
1720
330
17FF
330
1E87
330
1E88
330
1E89
330
1E8A
330
1E8B
330
1EA1
330
1EAE
330
1EAF
330
1F96
  0
IDBUFFER
  5
22E2
330
0
100
AcDbIdBuffer
  0
ACAD_PROXY_OBJECT
  5
21FF
102
{ACAD_REACTORS
330
21FD
102
}
330
21FD
100
AcDbProxyObject
 90
      499
 91
      604
 93
       61
310
54509404C5018AA3
340
21FE
 94
        0
1001
ACAD
1000
AcadProxyRoundTripData
1071
      587
1071
   655383
1070
     0
  0
ACAD_PROXY_OBJECT
  5
2222
102
{ACAD_REACTORS
330
21FD
102
}
330
21FD
100
AcDbProxyObject
 90
      499
 91
      604
 93
       61
310
54508404C9018AA0
340
2221
 94
        0
1001
ACAD
1000
AcadProxyRoundTripData
1071
      587
1071
   655383
1070
     0
  0
ACAD_PROXY_OBJECT
  5
2226
102
{ACAD_REACTORS
330
21FD
102
}
330
21FD
100
AcDbProxyObject
 90
      499
 91
      604
 93
       61
310
54507404CD018AA3
340
2225
 94
        0
1001
ACAD
1000
AcadProxyRoundTripData
1071
      587
1071
   655383
1070
     0
  0
ACAD_PROXY_OBJECT
  5
222A
102
{ACAD_REACTORS
330
21FD
102
}
330
21FD
100
AcDbProxyObject
 90
      499
 91
      604
 93
       61
310
54506404D1018AA3
340
2229
 94
        0
1001
ACAD
1000
AcadProxyRoundTripData
1071
      587
1071
   655383
1070
     0
  0
ACAD_PROXY_OBJECT
  5
222E
102
{ACAD_REACTORS
330
21FD
102
}
330
21FD
100
AcDbProxyObject
 90
      499
 91
      604
 93
       61
310
54505404D5018AA3
340
222D
 94
        0
1001
ACAD
1000
AcadProxyRoundTripData
1071
      587
1071
   655383
1070
     0
  0
ACAD_PROXY_OBJECT
  5
2232
102
{ACAD_REACTORS
330
21FD
102
}
330
21FD
100
AcDbProxyObject
 90
      499
 91
      604
 93
       61
310
54504404D9018AA3
340
2231
 94
        0
1001
ACAD
1000
AcadProxyRoundTripData
1071
      587
1071
   655383
1070
     0
  0
ACAD_PROXY_OBJECT
  5
2237
102
{ACAD_REACTORS
330
21FD
102
}
330
21FD
100
AcDbProxyObject
 90
      499
 91
      604
 93
       61
310
54503404DD018AA4
340
2236
 94
        0
1001
ACAD
1000
AcadProxyRoundTripData
1071
      587
1071
   655383
1070
     0
  0
ACAD_PROXY_OBJECT
  5
223A
102
{ACAD_REACTORS
330
21FD
102
}
330
21FD
100
AcDbProxyObject
 90
      499
 91
      604
 93
       61
310
54502404E1018AA3
340
2239
 94
        0
1001
ACAD
1000
AcadProxyRoundTripData
1071
      587
1071
   655383
1070
     0
  0
ACAD_PROXY_OBJECT
  5
2240
102
{ACAD_REACTORS
330
21FD
102
}
330
21FD
100
AcDbProxyObject
 90
      499
 91
      604
 93
       61
310
54501404E5018AA3
340
223F
 94
        0
1001
ACAD
1000
AcadProxyRoundTripData
1071
      587
1071
   655383
1070
     0
  0
ACAD_PROXY_OBJECT
  5
2207
330
2205
100
AcDbProxyObject
 90
      499
 91
      604
 93
       96
310
54420E80A0280A0280A0280800
 94
        0
1001
ACAD
1000
AcadProxyRoundTripData
1071
      594
1071
   655383
1070
     0
  0
ACAD_PROXY_OBJECT
  5
2208
330
2205
100
AcDbProxyObject
 90
      499
 91
      604
 93
      332
310
5450E4050140501405014050140501405014050142501405014050140501405012000000000000000404
340
2211
 94
        0
1001
ACAD
1000
AcadProxyRoundTripData
1071
      595
1071
   655383
1070
     0
  0
ACAD_PROXY_OBJECT
  5
2209
330
2205
100
AcDbProxyObject
 90
      499
 91
      604
 93
      402
310
544C199999999999E99F91F4050140501405014050140501405014050140501405014050140501405014050140501405014044
340
0
 94
        0
1001
ACAD
1000
AcadProxyRoundTripData
1071
      596
1071
   655383
1070
     0
  0
ACAD_PROXY_OBJECT
  5
220A
330
2205
100
AcDbProxyObject
 90
      499
 91
      604
 93
       10
310
5444
 94
        0
1001
ACAD
1000
AcadProxyRoundTripData
1071
      597
1071
   655383
1070
     0
  0
ACAD_PROXY_OBJECT
  5
220B
330
2205
100
AcDbProxyObject
 90
      499
 91
      604
 93
      223
310
546290EA22A7D90F49F8000000000000108140000000000000420205
340
2212
340
2213
 94
        0
1001
ACAD
1000
AcadProxyRoundTripData
1071
      598
1071
   655383
1070
     0
  0
ACAD_PROXY_OBJECT
  5
220C
330
2205
100
AcDbProxyObject
 90
      499
 91
      604
 93
    12645
310
5450E411255115350141236025B690140501406901000000000000091013347454E545241434F2C4A504E2C302C8D8096DA2C47454E54524154582C25732C2847454E4D53472067656E6477672032323229406901206A2A8B280A0921292F9480A0480A0280C808000000000000488099A3A2A72A2920A1A79625282716181
310
6484A4BE51623A2A72A2920AA2C1612B9961423A2A726A9A39033B2B7323BB39019191994A034809044E414D454050496BC914F4051C40640A80000000000004E404CD1D15395149050D3CB1294138B0C0B25AF2453CB11D15395149055160B095CCB0A11D1539354D1C819D95B991DD9C80C8C8D8A50190A3D504152543A4
310
E414D4540482A222A9A1A92028248704B5F2028EA03207400000000004028A02668E8A9CA8A482869E5894A09C58605921C12D7C588E8A9CA8A482A8B0584AE658508E8A9C9AA68E40CECADCC8EECE4064626E528092024214D51053911054911014122D2E29A50147501904A000000000000125013347454E545241434F2C
310
4A504E2C302C8B4B8A692C47454E54524154582C25732C2847454E4D53472067656E64776720323138294049012109A82A88AA492829880A091BBD2F7E80A3A80C82D0E27A15AF46E08A8099A3A2A72A2920A1A79625282716181646EF4BDF9623A2A72A2920AA2C1612B9961423A2A726A9A39033B2B7323BB39019191894
310
A034809044E4F544540504928D8B4C4051D40641A80000000000003E404CD1D15395149050D3CB1294138B0C0B24A362D30B11D15395149055160B095CCB0A11D1539354D1C819D95B991DD9C80C8C8D4A501A404832B22A72227A92028366EF6EE06F582028EA0320F40000000000001F2026A8E8A9CA8A482869E5894A09
310
C5860599BBDBB81BD60588E8A9CA8A482A8B0584AE658508E8A9C9AA68E40CECADCC8EECE406464685280D20241911154D0D48C90141A43825AF880C90147501908A000000000020145013447454E545241434F2C4A504E2C302C90E096BE20322C47454E54524154582C25732C2847454E4D53472067656E6477672033362
310
9404901212A6A8829C8882A4886480A0D169714D2406480A3A80C84D000000000000092809AA3A2A72A2920A1A79625282716181645A5C53490191623A2A72A2920AA2C1612B9961423A2A726A9A39033B2B7323BB39019191814A024809094D4154455249414C32405068DDE97BF20324051D40642A8713D0AD7A37045404
310
D11D15395149050D3CB1294138B0C0B2377A5EFC80C8B11D15395149055160B095CCB0A11D1539354D1C819D95B991DD9C80D0C0A50124048226A0A9A9A0282475FCBE52028EA028121681A040000000000001F202648E8A9CA8A482869E5894A09C5860591D7F2F94588E8A9CA8A482A8B0584AE658508E8A9C9AA68E40CE
310
CADCC8EECE40686452808871EA8AA2C952820A92A1D26A0A9A9A024154149250D150141226FE29A501475014090C409020000000000000F9013247454E545241434F2C4A504E2C302C89BF8A692C47454E54524154582C25732C2847454E4D53472067656E6477672034332940490120688929A80A0921432C8080A3A80A04
310
86A068100000000000007C809923A2A72A2920A1A7962528271618164850CB201623A2A72A2920AA2C1612B9961423A2A726A9A39033B2B7323BB3901A1A14A0248090E4050200000000000006101070040600000000000010900000000000000424041CF4F125511534F90140600000000000010900000000000000424041
310
CF4F125511534F9014060000000000000E100000000000000384041CF4F125511534F9014060000000000000E100000000000000384041CF4F125511534F90140A404000000000000424000000000000010901073D3C4954454D3E405063D3C5154593E405018000000000000424000000000000010901073D3C4954454D3E
310
4064040000000000000042400000000000001090000000000000008202068220681A048120280A112B292AD32AB85A5A882148421F04D904E44104DF06A706AD06C5069C8820321F04D904E44104DF06A706AD06C5069C8520321F04D904E44104DF06A706AD06C5069C8452028521485214814000000000000F0BF0000000
310
000003C2FD01409073373333333333B0FCCDCCCCCCCCCCEC3F0000000000000210320341A405024150741A4068000000000000108081204808
340
0
340
0
 94
        0
1001
ACAD
1000
AcadProxyRoundTripData
1071
      599
1071
   655383
1070
     0
  0
ACAD_PROXY_OBJECT
  5
220D
330
2205
100
AcDbProxyObject
 90
      499
 91
      604
 93
      894
310
544000000000000018404BCF511155105253080F11115510525317D3105091530F971414D0D05311480F11115510525317D05094D4D0D053114F92341C9A9999999999B93F26A666666666724FC000000000000E03F4000000000000004000000000000005100000000000000244047B
340
55
340
2206
 94
        0
1001
ACAD
1000
AcadProxyRoundTripData
1071
      600
1071
   655383
1070
     0
  0
ACAD_PROXY_OBJECT
  5
220E
330
2205
100
AcDbProxyObject
 90
      499
 91
      604
 93
      679
310
5440300000000000003080999EA9A2A1AA24A7A7101E29A2A1AA24A7A72FA620A122A62FA324A929AA1F169E29A2A1AA24A7A72FA620A122A62FA620A9AA1F00000000000004880FF41C8823C00000000000012205
340
55
340
2206
 94
        0
1001
ACAD
1000
AcadProxyRoundTripData
1071
      601
1071
   655383
1070
     0
  0
ACAD_PROXY_OBJECT
  5
220F
330
2205
100
AcDbProxyObject
 90
      499
 91
      604
 93
      279
310
5442B8716D9CEF7C33F0A5723F0BD4A2F0FC273108AC1C5A0640A3D0A5723F0BD1F205
 94
        0
1001
ACAD
1000
AcadProxyRoundTripData
1071
      602
1071
   655383
1070
     0
  0
ACAD_PROXY_OBJECT
  5
2210
330
2205
100
AcDbProxyObject
 90
      499
 91
      604
 93
       14
310
5460
340
0
 94
        0
1001
ACAD
1000
AcadProxyRoundTripData
1071
      571
1071
   655383
1070
     0
  0
ACAD_PROXY_OBJECT
  5
2215
330
2205
100
AcDbProxyObject
 90
      499
 91
      604
 93
       20
310
545018
340
F3
 94
        0
1001
ACAD
1000
AcadProxyRoundTripData
1071
      572
1071
   655383
1070
     0
  0
ACAD_PROXY_OBJECT
  5
2216
330
2205
100
AcDbProxyObject
 90
      499
 91
      604
 93
      250
310
545010000000000000A1000000000000002440408F0F9023C3E409A0DCFFFF95
340
2217
340
0
340
0
340
2218
340
2219
340
0
340
221A
340
221B
340
221C
 94
        0
1001
ACAD
1000
AcadProxyRoundTripData
1071
      573
1071
   655383
1070
     0
  0
ACAD_PROXY_OBJECT
  5
221D
330
2205
100
AcDbProxyObject
 90
      499
 91
      604
 93
     5022
310
5459741105394D2506414E53495F4342905394D257D512551554D15414E53495F54525F5265766973696F6E6C697374614191143202831372E307832322E30696E63682941905394D257D0D1146202832382E307834302E30696E63682941905394D257D191142202831312E307831372E30696E63682941905394D257D091
310
144202832322E307833342E30696E63682941905394D257D111145202833342E307834342E30696E63682941905394D257D1510412028382E357831312E30696E63682941905394D257D050543905B9CDA482557247A25E4C81110D0C414E53495F5449544C45444343505B9CDA482557247A25E4C81050B414E53495F5449
310
544C454143905B9CDA482557247A25E4C81050D0C414E53495F5449544C454143425554C82557247A25E4D0A414E53495F544954555343505B9CDA482557247A25E4C81110B414E53495F5449544C45444210D979A97F0D8BDC420415F42525F45505394D257D09497D4995D9A5CDA5BDB9B1A5CDD1850D979A97F0D8BDC42
310
0415F54525F45505394D257D51497D4995D9A5CDA5BDB9B1A5CDD1850D979A97F0D8BDC420445F42525F45505394D257D09497D4995D9A5CDA5BDB9B1A5CDD1910D979A97F0D8BDC420445F54525F45505394D257D51497D4995D9A5CDA5BDB9B1A5CDD1910D979A97F0D8BDC420415F424C5F45505394D257D09317D4995D
310
9A5CDA5BDB9B1A5CDD1850D979A97F0D8BDC420415F544C5F45505394D257D51317D4995D9A5CDA5BDB9B1A5CDD1850D979A97F0D8BDC420445F424C5F45505394D257D09317D4995D9A5CDA5BDB9B1A5CDD1910D979A97F0D8BDC420445F544C5F45505394D257D51317D4995D9A5CDA5BDB9B1A5CDD190
 94
        0
1001
ACAD
1000
AcadProxyRoundTripData
1071
      574
1071
   655383
1070
     0
  0
ACAD_PROXY_OBJECT
  5
FE
330
F2
100
AcDbProxyObject
 90
      499
 91
      604
 93
       12
310
5454
 94
        0
1001
ACAD
1000
AcadProxyRoundTripData
1071
      561
1071
   655383
1070
     0
  0
ACAD_PROXY_OBJECT
  5
FF
330
F2
100
AcDbProxyObject
 90
      499
 91
      604
 93
       96
310
546A0E80A0280A0280A0280F44
 94
        0
1001
ACAD
1000
AcadProxyRoundTripData
1071
      562
1071
   655383
1070
     0
  0
ACAD_PROXY_OBJECT
  5
100
330
F2
100
AcDbProxyObject
 90
      499
 91
      604
 93
      272
310
5450E4050140501405014050140501405014050140D01405012C0000000000000040EC
340
109
 94
        0
1001
ACAD
1000
AcadProxyRoundTripData
1071
      563
1071
   655383
1070
     0
  0
ACAD_PROXY_OBJECT
  5
101
330
F2
100
AcDbProxyObject
 90
      499
 91
      604
 93
      496
310
5468666666666667A67E199999999999E99FD22405014050140501405014050140501405014050140501405014050140501405014050140501405014050100
340
10A
 94
        0
1001
ACAD
1000
AcadProxyRoundTripData
1071
      564
1071
   655383
1070
     0
  0
ACAD_PROXY_OBJECT
  5
102
330
F2
100
AcDbProxyObject
 90
      499
 91
      604
 93
       10
310
5444
 94
        0
1001
ACAD
1000
AcadProxyRoundTripData
1071
      565
1071
   655383
1070
     0
  0
ACAD_PROXY_OBJECT
  5
103
330
F2
100
AcDbProxyObject
 90
      499
 91
      604
 93
      223
310
546290EA22A7D90F49F8000000000000108140000000000000420205
340
10B
340
10C
 94
        0
1001
ACAD
1000
AcadProxyRoundTripData
1071
      566
1071
   655383
1070
     0
  0
ACAD_PROXY_OBJECT
  5
104
330
F2
100
AcDbProxyObject
 90
      499
 91
      604
 93
    12179
310
5450E411255115350141236025B690140501406901000000000000091013347454E545241434F2C4A504E2C302C8D8096DA2C47454E54524154582C25732C2847454E4D53472067656E6477672032323229406901206A2A8B280A0921292F9480A0480A0280C808000000000000488099A3A2A72A2920A1A79625282716181
310
6484A4BE51623A2A72A2920AA2C1612B9961423A2A726A9A39033B2B7323BB39019191994A034809044E414D454050496BC914F4051C40640A80000000000004E404CD1D15395149050D3CB1294138B0C0B25AF2453CB11D15395149055160B095CCB0A11D1539354D1C819D95B991DD9C80C8C8D8A50190A3D504152543A4
310
E414D4540482A222A9A1A92028248704B5F2028EA03207400000000004028A02668E8A9CA8A482869E5894A09C58605921C12D7C588E8A9CA8A482A8B0584AE658508E8A9C9AA68E40CECADCC8EECE4064626E5280D2024214D51053911054911014122D2E29A50147501904A000000000000125013347454E545241434F2C
310
4A504E2C302C8B4B8A692C47454E54524154582C25732C2847454E4D53472067656E64776720323138294069012109A82A88AA492829880A091BBD2F7E80A3A80C82D0000000000000728099A3A2A72A2920A1A79625282716181646EF4BDF9623A2A72A2920AA2C1612B9961423A2A726A9A39033B2B7323BB39019191894
310
A034809044E4F544540504928D8B4C4051D40641A80000000000003E404CD1D15395149050D3CB1294138B0C0B24A362D30B11D15395149055160B095CCB0A11D1539354D1C819D95B991DD9C80C8C8D4A5012404832B22A72227A92028366EF6EE06F582028EA0320F40000000000001F2026A8E8A9CA8A482869E5894A09
310
C5860599BBDBB81BD60588E8A9CA8A482A8B0584AE658508E8A9C9AA68E40CECADCC8EECE406464685280920241911154D0D48C90141A43825AF880C90147501908A000000000020145013447454E545241434F2C4A504E2C302C90E096BE20322C47454E54524154582C25732C2847454E4D53472067656E6477672033362
310
9404901212A6A8829C8882A4886480A0D169714D2406480A3A80C84D000000000000092809AA3A2A72A2920A1A79625282716181645A5C53490191623A2A72A2920AA2C1612B9961423A2A726A9A39033B2B7323BB39019191814A024809094D4154455249414C32405068DDE97BF20324051D40642A8713D0AD7A37045404
310
D11D15395149050D3CB1294138B0C0B2377A5EFC80C8B11D15395149055160B095CCB0A11D1539354D1C819D95B991DD9C80D0C0A50124048226A0A9A9A0282475FCBE52028EA028121681A040000000000001F202648E8A9CA8A482869E5894A09C5860591D7F2F94588E8A9CA8A482A8B0584AE658508E8A9C9AA68E40CE
310
CADCC8EECE40686452808871EA8AA2C952820A92A1D26A0A9A9A024154149250D150141226FE29A501475014090C409020000000000000F9013247454E545241434F2C4A504E2C302C89BF8A692C47454E54524154582C25732C2847454E4D53472067656E6477672034332940490120688929A80A0921432C8080A3A80A04
310
86A068100000000000007C809923A2A72A2920A1A7962528271618164850CB201623A2A72A2920AA2C1612B9961423A2A726A9A39033B2B7323BB3901A1A14A0248090E445020000000000000510107004060000000000000F9000000000000003E4041CF4F125511534F9014060000000000000F9000000000000003E4041
310
CF4F125511534F9014060000000000000D100000000000000344041CF4F125511534F9014060000000000000D100000000000000344041CF4F125511534F90140A4040000000000003E400000000000000F901073D3C4954454D3E405063D3C5154593E4050180000000000003E400000000000000F901073D3C4954454D3E
310
406404000000000000003E400000000000000F90000000000000008202068220681A048120280C882148448820348520348452028521485214814000000000000F0BF0000000000003C2FD01409073373333333333B0FCCDCCCCCCCCCCEC3F000000000000031012034164050341105901A0000000000000620204812020
340
0
340
0
 94
        0
1001
ACAD
1000
AcadProxyRoundTripData
1071
      567
1071
   655383
1070
     0
  0
ACAD_PROXY_OBJECT
  5
105
330
F2
100
AcDbProxyObject
 90
      499
 91
      604
 93
      798
310
5444000000000000144048CF4F11115510525317D3105091530F880A0F11115510525317D05094D4D0D053114F8A51141C9A9999999999B93F26A666666666724FC000000000000E03F4000000000000004000000000000005100000000000000244041D
340
16
340
FD
 94
        0
1001
ACAD
1000
AcadProxyRoundTripData
1071
      568
1071
   655383
1070
     0
  0
ACAD_PROXY_OBJECT
  5
106
330
F2
100
AcDbProxyObject
 90
      499
 91
      604
 93
      679
310
5440B00000000000002880959E9E29A2A1AA24A7A72FA620A122A62FA324A929AA1F169E29A2A1AA24A7A72FA620A122A62FA620A9AA1F00000000000004880FF41C88A0E000000000000122000000000000002881
340
56
340
FD
 94
        0
1001
ACAD
1000
AcadProxyRoundTripData
1071
      569
1071
   655383
1070
     0
  0
ACAD_PROXY_OBJECT
  5
107
330
F2
100
AcDbProxyObject
 90
      499
 91
      604
 93
      151
310
54680000000000000840A3D0A5723F0BD1F200
 94
        0
1001
ACAD
1000
AcadProxyRoundTripData
1071
      570
1071
   655383
1070
     0
  0
ACAD_PROXY_OBJECT
  5
108
330
F2
100
AcDbProxyObject
 90
      499
 91
      604
 93
       14
310
5460
340
0
 94
        0
1001
ACAD
1000
AcadProxyRoundTripData
1071
      571
1071
   655383
1070
     0
  0
ACAD_PROXY_OBJECT
  5
10F
330
F2
100
AcDbProxyObject
 90
      499
 91
      604
 93
       20
310
545018
340
F3
 94
        0
1001
ACAD
1000
AcadProxyRoundTripData
1071
      572
1071
   655383
1070
     0
  0
ACAD_PROXY_OBJECT
  5
110
330
F2
100
AcDbProxyObject
 90
      499
 91
      604
 93
      250
310
545010000000000000A1000000000000002440408F0F9023C3E409A0DCFFFFA5
340
111
340
0
340
0
340
112
340
113
340
114
340
115
340
116
340
11B
 94
        0
1001
ACAD
1000
AcadProxyRoundTripData
1071
      573
1071
   655383
1070
     0
  0
ACAD_PROXY_OBJECT
  5
11C
330
F2
100
AcDbProxyObject
 90
      499
 91
      604
 93
     6922
310
5459740D254D3D0649534F5F4133429254D3D7D5125513115051349534F5F42525F5265766973696F6E6C69737446111413478342028323937783834316D6D2920421254D3D7D04D1E0D11141327835202835393478323130326D6D29421254D3D7D04C9E0D51141337837202834323078323038306D6D29421254D3D7D04C
310
DE0DD1141347839202832393778313839326D6D29421254D3D7D04D1E0E50E41312028353934783834316D6D29419254D3D7D04C51141327834202835393478313638326D6D29421254D3D7D04C9E0D11141347838202832393778313638326D6D29421254D3D7D04D1E0E10E41332028323937783432306D6D29419254D3D
310
7D04CD104130202838343078313138396D6D2920419254D3D7D04C11141347835202832393778313035316D6D29421254D3D7D04D1E0D51141347836202832393778313236316D6D29421254D3D7D04D1E0D91141347837202832393778313437316D6D29421254D3D7D04D1E0DD1141327833202835393478313236316D6D
310
29421254D3D7D04C9E0CD1141337834202834323078313138396D6D29421254D3D7D04CDE0D110413478332028323937783633306D6D29421254D3D7D04D1E0CD1141337835202834323078313438366D6D29421254D3D7D04CDE0D51141337836202834323078313738336D6D29421254D3D7D04CDE0D9104133783320283
310
43230783839316D6D29421254D3D7D04CDE0CD0E41322028343230783539346D6D29419254D3D7D04C9124130783220283131383978313638326D6D29421254D3D7D04C1E0C90E41342028323937783231306D6D29419254D3D7D04D1124130783320283131383978323532336D6D29421254D3D7D04C1E0CD114131783420
310
2838343178323337386D6D29421254D3D7D04C5E0D11141317833202838343178313738336D6D29421254D3D7D04C5E0CD02431254D3C82557247A25E4C81050A49534F5F5449544C4541431254D3C82557247A25E4C81090A49534F5F5449544C45424110B979A97F0D8BDC45F424C5F44D254D3D7D09317D4995D9A5CDA5
310
BDB9B1A5CDD10B979A97F0D8BDC45F544C5F44D254D3D7D51317D4995D9A5CDA5BDB9B1A5CDD10B979A97F0D8BDC45F42525F44D254D3D7D09497D4995D9A5CDA5BDB9B1A5CDD10B979A97F0D8BDC45F54525F44D254D3D7D51497D4995D9A5CDA5BDB9B1A5CDD32
 94
        0
1001
ACAD
1000
AcadProxyRoundTripData
1071
      574
1071
   655383
1070
     0
  0
ENDSEC
  0
EOF
